  0
SECTION
  2
HEADER
  9
$ACADVER
  1
AC1015
  9
$ACADMAINTVER
 70
     6
  9
$DWGCODEPAGE
  3
ANSI_1252
  9
$INSBASE
 10
0.0
 20
0.0
 30
0.0
  9
$EXTMIN
 10
-105.0000000000001
 20
0.0
 30
0.0
  9
$EXTMAX
 10
0.0
 20
148.5000000000001
 30
0.0
  9
$LIMMIN
 10
0.0
 20
0.0
  9
$LIMMAX
 10
12.0
 20
9.0
  9
$ORTHOMODE
 70
     0
  9
$REGENMODE
 70
     1
  9
$FILLMODE
 70
     1
  9
$QTEXTMODE
 70
     0
  9
$MIRRTEXT
 70
     1
  9
$LTSCALE
 40
1.0
  9
$ATTMODE
 70
     1
  9
$TEXTSIZE
 40
0.2
  9
$TRACEWID
 40
0.05
  9
$TEXTSTYLE
  7
Standard
  9
$CLAYER
  8
0
  9
$CELTYPE
  6
ByLayer
  9
$CECOLOR
 62
   256
  9
$CELTSCALE
 40
1.0
  9
$DISPSILH
 70
     0
  9
$DIMSCALE
 40
1.0
  9
$DIMASZ
 40
0.18
  9
$DIMEXO
 40
0.0625
  9
$DIMDLI
 40
0.38
  9
$DIMRND
 40
0.0
  9
$DIMDLE
 40
0.0
  9
$DIMEXE
 40
0.18
  9
$DIMTP
 40
0.0
  9
$DIMTM
 40
0.0
  9
$DIMTXT
 40
0.18
  9
$DIMCEN
 40
0.09
  9
$DIMTSZ
 40
0.0
  9
$DIMTOL
 70
     0
  9
$DIMLIM
 70
     0
  9
$DIMTIH
 70
     1
  9
$DIMTOH
 70
     1
  9
$DIMSE1
 70
     0
  9
$DIMSE2
 70
     0
  9
$DIMTAD
 70
     0
  9
$DIMZIN
 70
     0
  9
$DIMBLK
  1

  9
$DIMASO
 70
     1
  9
$DIMSHO
 70
     1
  9
$DIMPOST
  1

  9
$DIMAPOST
  1

  9
$DIMALT
 70
     0
  9
$DIMALTD
 70
     2
  9
$DIMALTF
 40
25.4
  9
$DIMLFAC
 40
1.0
  9
$DIMTOFL
 70
     0
  9
$DIMTVP
 40
0.0
  9
$DIMTIX
 70
     0
  9
$DIMSOXD
 70
     0
  9
$DIMSAH
 70
     0
  9
$DIMBLK1
  1

  9
$DIMBLK2
  1

  9
$DIMSTYLE
  2
Standard
  9
$DIMCLRD
 70
     0
  9
$DIMCLRE
 70
     0
  9
$DIMCLRT
 70
     0
  9
$DIMTFAC
 40
1.0
  9
$DIMGAP
 40
0.09
  9
$DIMJUST
 70
     0
  9
$DIMSD1
 70
     0
  9
$DIMSD2
 70
     0
  9
$DIMTOLJ
 70
     1
  9
$DIMTZIN
 70
     0
  9
$DIMALTZ
 70
     0
  9
$DIMALTTZ
 70
     0
  9
$DIMUPT
 70
     0
  9
$DIMDEC
 70
     4
  9
$DIMTDEC
 70
     4
  9
$DIMALTU
 70
     2
  9
$DIMALTTD
 70
     2
  9
$DIMTXSTY
  7
Standard
  9
$DIMAUNIT
 70
     0
  9
$DIMADEC
 70
     0
  9
$DIMALTRND
 40
0.0
  9
$DIMAZIN
 70
     0
  9
$DIMDSEP
 70
    46
  9
$DIMATFIT
 70
     3
  9
$DIMFRAC
 70
     0
  9
$DIMLDRBLK
  1

  9
$DIMLUNIT
 70
     2
  9
$DIMLWD
 70
    -2
  9
$DIMLWE
 70
    -2
  9
$DIMTMOVE
 70
     0
  9
$LUNITS
 70
     2
  9
$LUPREC
 70
     4
  9
$SKETCHINC
 40
0.1
  9
$FILLETRAD
 40
0.5
  9
$AUNITS
 70
     0
  9
$AUPREC
 70
     0
  9
$MENU
  1
.
  9
$ELEVATION
 40
0.0
  9
$PELEVATION
 40
0.0
  9
$THICKNESS
 40
0.0
  9
$LIMCHECK
 70
     0
  9
$CHAMFERA
 40
0.5
  9
$CHAMFERB
 40
0.5
  9
$CHAMFERC
 40
1.0
  9
$CHAMFERD
 40
0.0
  9
$SKPOLY
 70
     0
  9
$TDCREATE
 40
2456997.4913525
  9
$TDUCREATE
 40
2456997.449685833
  9
$TDUPDATE
 40
2456997.491352859
  9
$TDUUPDATE
 40
2456997.449686192
  9
$TDINDWG
 40
0.0000000116
  9
$TDUSRTIMER
 40
0.0000000116
  9
$USRTIMER
 70
     1
  9
$ANGBASE
 50
0.0
  9
$ANGDIR
 70
     0
  9
$PDMODE
 70
     0
  9
$PDSIZE
 40
0.0
  9
$PLINEWID
 40
0.0
  9
$SPLFRAME
 70
     0
  9
$SPLINETYPE
 70
     6
  9
$SPLINESEGS
 70
     8
  9
$HANDSEED
  5
2A3
  9
$SURFTAB1
 70
     6
  9
$SURFTAB2
 70
     6
  9
$SURFTYPE
 70
     6
  9
$SURFU
 70
     6
  9
$SURFV
 70
     6
  9
$UCSBASE
  2

  9
$UCSNAME
  2

  9
$UCSORG
 10
0.0
 20
0.0
 30
0.0
  9
$UCSXDIR
 10
1.0
 20
0.0
 30
0.0
  9
$UCSYDIR
 10
0.0
 20
1.0
 30
0.0
  9
$UCSORTHOREF
  2

  9
$UCSORTHOVIEW
 70
     0
  9
$UCSORGTOP
 10
0.0
 20
0.0
 30
0.0
  9
$UCSORGBOTTOM
 10
0.0
 20
0.0
 30
0.0
  9
$UCSORGLEFT
 10
0.0
 20
0.0
 30
0.0
  9
$UCSORGRIGHT
 10
0.0
 20
0.0
 30
0.0
  9
$UCSORGFRONT
 10
0.0
 20
0.0
 30
0.0
  9
$UCSORGBACK
 10
0.0
 20
0.0
 30
0.0
  9
$PUCSBASE
  2

  9
$PUCSNAME
  2

  9
$PUCSORG
 10
0.0
 20
0.0
 30
0.0
  9
$PUCSXDIR
 10
1.0
 20
0.0
 30
0.0
  9
$PUCSYDIR
 10
0.0
 20
1.0
 30
0.0
  9
$PUCSORTHOREF
  2

  9
$PUCSORTHOVIEW
 70
     0
  9
$PUCSORGTOP
 10
0.0
 20
0.0
 30
0.0
  9
$PUCSORGBOTTOM
 10
0.0
 20
0.0
 30
0.0
  9
$PUCSORGLEFT
 10
0.0
 20
0.0
 30
0.0
  9
$PUCSORGRIGHT
 10
0.0
 20
0.0
 30
0.0
  9
$PUCSORGFRONT
 10
0.0
 20
0.0
 30
0.0
  9
$PUCSORGBACK
 10
0.0
 20
0.0
 30
0.0
  9
$USERI1
 70
     0
  9
$USERI2
 70
     0
  9
$USERI3
 70
     0
  9
$USERI4
 70
     0
  9
$USERI5
 70
     0
  9
$USERR1
 40
18.1
  9
$USERR2
 40
0.0
  9
$USERR3
 40
0.0
  9
$USERR4
 40
0.0
  9
$USERR5
 40
0.0
  9
$WORLDVIEW
 70
     1
  9
$SHADEDGE
 70
     3
  9
$SHADEDIF
 70
    70
  9
$TILEMODE
 70
     1
  9
$MAXACTVP
 70
    64
  9
$PINSBASE
 10
0.0
 20
0.0
 30
0.0
  9
$PLIMCHECK
 70
     0
  9
$PEXTMIN
 10
1.00000000000000E+20
 20
1.00000000000000E+20
 30
1.00000000000000E+20
  9
$PEXTMAX
 10
-1.00000000000000E+20
 20
-1.00000000000000E+20
 30
-1.00000000000000E+20
  9
$PLIMMIN
 10
0.0
 20
0.0
  9
$PLIMMAX
 10
12.0
 20
9.0
  9
$UNITMODE
 70
     0
  9
$VISRETAIN
 70
     1
  9
$PLINEGEN
 70
     0
  9
$PSLTSCALE
 70
     1
  9
$TREEDEPTH
 70
  3020
  9
$CMLSTYLE
  2
Standard
  9
$CMLJUST
 70
     0
  9
$CMLSCALE
 40
1.0
  9
$PROXYGRAPHICS
 70
     1
  9
$MEASUREMENT
 70
     1
  9
$CELWEIGHT
370
    -1
  9
$ENDCAPS
280
     0
  9
$JOINSTYLE
280
     0
  9
$LWDISPLAY
290
     0
  9
$INSUNITS
 70
     4
  9
$HYPERLINKBASE
  1

  9
$STYLESHEET
  1

  9
$XEDIT
290
     1
  9
$CEPSNTYPE
380
     0
  9
$PSTYLEMODE
290
     1
  9
$FINGERPRINTGUID
  2
{00BE6F8B-2E60-48B9-8796-CD2DFD05EADB}
  9
$VERSIONGUID
  2
{FAEB1C32-E019-11D5-929B-00C0DF256EC4}
  9
$EXTNAMES
290
     1
  9
$PSVPSCALE
 40
0.0
  9
$OLESTARTUP
290
     0
  0
ENDSEC
  0
SECTION
  2
CLASSES
  0
CLASS
  1
ACDBDICTIONARYWDFLT
  2
AcDbDictionaryWithDefault
  3
ObjectDBX Classes
 90
        0
280
     0
281
     0
  0
CLASS
  1
VISUALSTYLE
  2
AcDbVisualStyle
  3
ObjectDBX Classes
 90
     4095
280
     0
281
     0
  0
CLASS
  1
MATERIAL
  2
AcDbMaterial
  3
ObjectDBX Classes
 90
     1153
280
     0
281
     0
  0
CLASS
  1
DICTIONARYVAR
  2
AcDbDictionaryVar
  3
ObjectDBX Classes
 90
        0
280
     0
281
     0
  0
CLASS
  1
ACDBPLACEHOLDER
  2
AcDbPlaceHolder
  3
ObjectDBX Classes
 90
        0
280
     0
281
     0
  0
CLASS
  1
LAYOUT
  2
AcDbLayout
  3
ObjectDBX Classes
 90
        0
280
     0
281
     0
  0
ENDSEC
  0
SECTION
  2
TABLES
  0
TABLE
  2
VPORT
  5
8
330
0
100
AcDbSymbolTable
 70
     1
  0
VPORT
  5
29
330
8
100
AcDbSymbolTableRecord
100
AcDbViewportTableRecord
  2
*Active
 70
     0
 10
0.0
 20
0.0
 11
1.0
 21
1.0
 12
-52.50000000000005
 22
74.25000000000006
 13
0.0
 23
0.0
 14
0.5
 24
0.5
 15
0.5
 25
0.5
 16
0.0
 26
0.0
 36
1.0
 17
0.0
 27
0.0
 37
0.0
 40
163.3500000000001
 41
1.60267857142857
 42
50.0
 43
0.0
 44
0.0
 50
0.0
 51
0.0
 71
     0
 72
   100
 73
     1
 74
     3
 75
     0
 76
     0
 77
     0
 78
     0
281
     0
 65
     1
110
0.0
120
0.0
130
0.0
111
1.0
121
0.0
131
0.0
112
0.0
122
1.0
132
0.0
 79
     0
146
0.0
  0
ENDTAB
  0
TABLE
  2
LTYPE
  5
5
330
0
100
AcDbSymbolTable
 70
     8
  0
LTYPE
  5
14
330
5
100
AcDbSymbolTableRecord
100
AcDbLinetypeTableRecord
  2
ByBlock
 70
     0
  3

 72
    65
 73
     0
 40
0.0
  0
LTYPE
  5
15
330
5
100
AcDbSymbolTableRecord
100
AcDbLinetypeTableRecord
  2
ByLayer
 70
     0
  3

 72
    65
 73
     0
 40
0.0
  0
LTYPE
  5
16
330
5
100
AcDbSymbolTableRecord
100
AcDbLinetypeTableRecord
  2
Continuous
 70
     0
  3
Solid line
 72
    65
 73
     0
 40
0.0
  0
LTYPE
  5
3F
330
5
100
AcDbSymbolTableRecord
100
AcDbLinetypeTableRecord
  2
DASHED
 70
     0
  3
Dashed
 72
    65
 73
     2
 40
15.0
 49
7.0
 74
     0
 49
-8.0
 74
     0
  0
LTYPE
  5
40
330
5
100
AcDbSymbolTableRecord
100
AcDbLinetypeTableRecord
  2
DOTTED
 70
     0
  3
Dotted
 72
    65
 73
     2
 40
1.0
 49
0.0
 74
     0
 49
-1.0
 74
     0
  0
LTYPE
  5
41
330
5
100
AcDbSymbolTableRecord
100
AcDbLinetypeTableRecord
  2
DOT_CENTER
 70
     0
  3
Dot_Center
 72
    65
 73
     4
 40
14.0
 49
12.0
 74
     0
 49
-1.0
 74
     0
 49
0.0
 74
     0
 49
-1.0
 74
     0
  0
LTYPE
  5
42
330
5
100
AcDbSymbolTableRecord
100
AcDbLinetypeTableRecord
  2
LONG_DASHED
 70
     0
  3
Long_Dashed
 72
    65
 73
     2
 40
15.0
 49
10.0
 74
     0
 49
-5.0
 74
     0
  0
LTYPE
  5
43
330
5
100
AcDbSymbolTableRecord
100
AcDbLinetypeTableRecord
  2
DASH_CENTER
 70
     0
  3
Dash_Center
 72
    65
 73
     4
 40
14.0
 49
11.0
 74
     0
 49
-1.0
 74
     0
 49
1.0
 74
     0
 49
-1.0
 74
     0
  0
LTYPE
  5
44
330
5
100
AcDbSymbolTableRecord
100
AcDbLinetypeTableRecord
  2
PHANTOM
 70
     0
  3
Phantom
 72
    65
 73
     6
 40
13.0
 49
10.0
 74
     0
 49
-1.0
 74
     0
 49
0.0
 74
     0
 49
-1.0
 74
     0
 49
0.0
 74
     0
 49
-1.0
 74
     0
  0
LTYPE
  5
45
330
5
100
AcDbSymbolTableRecord
100
AcDbLinetypeTableRecord
  2
CENTER_DASH_DASH
 70
     0
  3
Center_Dash_Dash
 72
    65
 73
     6
 40
14.0
 49
9.0
 74
     0
 49
-1.0
 74
     0
 49
1.0
 74
     0
 49
-1.0
 74
     0
 49
1.0
 74
     0
 49
-1.0
 74
     0
  0
ENDTAB
  0
TABLE
  2
LAYER
  5
2
330
0
100
AcDbSymbolTable
 70
     2
  0
LAYER
  5
10
330
2
100
AcDbSymbolTableRecord
100
AcDbLayerTableRecord
  2
0
 70
     0
 62
     7
  6
Continuous
370
    -3
390
F
  0
LAYER
  5
46
330
2
100
AcDbSymbolTableRecord
100
AcDbLayerTableRecord
  2
1
 70
     0
 62
     7
  6
Continuous
370
    -3
390
F
  0
ENDTAB
  0
TABLE
  2
STYLE
  5
3
330
0
100
AcDbSymbolTable
 70
     5
  0
STYLE
  5
11
330
3
100
AcDbSymbolTableRecord
100
AcDbTextStyleTableRecord
  2
Standard
 70
     0
 40
0.0
 41
1.0
 50
0.0
 71
     0
 42
0.2
  3
txt
  4

  0
STYLE
  5
225
330
3
100
AcDbSymbolTableRecord
100
AcDbTextStyleTableRecord
  2
CONVERTER_11
 70
     0
 40
0.0
 41
0.95
 50
0.0
 71
     0
 42
0.2
  3
simplex.shx
  4

  0
STYLE
  5
22A
330
3
100
AcDbSymbolTableRecord
100
AcDbTextStyleTableRecord
  2
CONVERTER_12
 70
     0
 40
0.0
 41
0.855
 50
0.0
 71
     0
 42
0.2
  3
simplex.shx
  4

  0
STYLE
  5
23D
330
3
100
AcDbSymbolTableRecord
100
AcDbTextStyleTableRecord
  2
CONVERTER_13
 70
     0
 40
0.0
 41
1.2
 50
0.0
 71
     0
 42
0.2
  3
ARIAL.TTF
  4

  0
STYLE
  5
243
330
3
100
AcDbSymbolTableRecord
100
AcDbTextStyleTableRecord
  2
CONVERTER_14
 70
     0
 40
0.0
 41
1.32
 50
0.0
 71
     0
 42
0.2
  3
ARIAL.TTF
  4

  0
ENDTAB
  0
TABLE
  2
VIEW
  5
6
330
0
100
AcDbSymbolTable
 70
     0
  0
ENDTAB
  0
TABLE
  2
UCS
  5
7
330
0
100
AcDbSymbolTable
 70
     0
  0
ENDTAB
  0
TABLE
  2
APPID
  5
9
330
0
100
AcDbSymbolTable
 70
     1
  0
APPID
  5
12
330
9
100
AcDbSymbolTableRecord
100
AcDbRegAppTableRecord
  2
ACAD
 70
     0
  0
ENDTAB
  0
TABLE
  2
DIMSTYLE
  5
A
330
0
100
AcDbSymbolTable
 70
     4
100
AcDbDimStyleTable
  0
DIMSTYLE
105
27
330
A
100
AcDbSymbolTableRecord
100
AcDbDimStyleTableRecord
  2
Standard
 70
     0
178
     0
340
11
  0
DIMSTYLE
105
25A
102
{ACAD_REACTORS
330
25B
102
}
330
A
100
AcDbSymbolTableRecord
100
AcDbDimStyleTableRecord
  2
ME10_DIM_10
 70
     0
 41
1.5
 42
0.25
 44
0.5
 77
     1
 78
     8
140
1.5
147
1.0
172
     1
173
     1
174
     1
175
     1
176
     2
177
     2
271
     2
178
     4
271
     2
340
225
  0
DIMSTYLE
105
266
102
{ACAD_REACTORS
330
267
102
}
330
A
100
AcDbSymbolTableRecord
100
AcDbDimStyleTableRecord
  2
ME10_DIM_11
 70
     0
  3
ø<>
 41
1.5
 42
0.25
 44
0.5
 73
     0
 74
     0
 77
     1
 78
     8
140
1.5
147
1.0
172
     1
173
     1
174
     1
175
     1
176
     2
177
     2
271
     2
178
     4
271
     2
340
225
  0
DIMSTYLE
105
271
102
{ACAD_REACTORS
330
272
102
}
330
A
100
AcDbSymbolTableRecord
100
AcDbDimStyleTableRecord
  2
ME10_DIM_12
 70
     0
  3
 {\Fgdt;n}<>
 41
1.75
 42
0.5
 44
0.5
 73
     0
 74
     0
 77
     1
 78
     8
140
1.75
147
1.0
172
     1
173
     1
174
     1
175
     1
176
     2
177
     2
271
     2
178
     4
271
     2
340
225
  0
ENDTAB
  0
TABLE
  2
BLOCK_RECORD
  5
1
330
0
100
AcDbSymbolTable
 70
     4
  0
BLOCK_RECORD
  5
1F
330
1
100
AcDbSymbolTableRecord
100
AcDbBlockTableRecord
  2
*Model_Space
340
22
  0
BLOCK_RECORD
  5
1B
330
1
100
AcDbSymbolTableRecord
100
AcDbBlockTableRecord
  2
*Paper_Space
340
1E
  0
BLOCK_RECORD
  5
23
330
1
100
AcDbSymbolTableRecord
100
AcDbBlockTableRecord
  2
*Paper_Space0
340
26
  0
BLOCK_RECORD
  5
250
330
1
100
AcDbSymbolTableRecord
100
AcDbBlockTableRecord
  2
*D1
340
0
  0
BLOCK_RECORD
  5
25C
330
1
100
AcDbSymbolTableRecord
100
AcDbBlockTableRecord
  2
*D2
340
0
  0
BLOCK_RECORD
  5
268
330
1
100
AcDbSymbolTableRecord
100
AcDbBlockTableRecord
  2
*D3
340
0
  0
ENDTAB
  0
ENDSEC
  0
SECTION
  2
BLOCKS
  0
BLOCK
  5
20
330
1F
100
AcDbEntity
  8
0
100
AcDbBlockBegin
  2
*Model_Space
 70
     0
 10
0.0
 20
0.0
 30
0.0
  3
*Model_Space
  1

  0
ENDBLK
  5
21
330
1F
100
AcDbEntity
  8
0
100
AcDbBlockEnd
  0
BLOCK
  5
1C
330
1B
100
AcDbEntity
 67
     1
  8
0
100
AcDbBlockBegin
  2
*Paper_Space
 70
     0
 10
0.0
 20
0.0
 30
0.0
  3
*Paper_Space
  1

  0
ENDBLK
  5
1D
330
1B
100
AcDbEntity
 67
     1
  8
0
100
AcDbBlockEnd
  0
BLOCK
  5
24
330
23
100
AcDbEntity
  8
0
100
AcDbBlockBegin
  2
*Paper_Space0
 70
     0
 10
0.0
 20
0.0
 30
0.0
  3
*Paper_Space0
  1

  0
ENDBLK
  5
25
330
23
100
AcDbEntity
  8
0
100
AcDbBlockEnd
  0
BLOCK
  5
258
330
250
100
AcDbEntity
  8
0
100
AcDbBlockBegin
  2
*D1
 70
     1
 10
0.0
 20
0.0
 30
0.0
  3
*D1
  1

  0
LINE
  5
251
330
250
100
AcDbEntity
  8
1
  6
Continuous
 62
     2
100
AcDbLine
 10
-79.1849474912486
 20
89.29324596774195
 30
0.0
 11
-79.1849474912486
 21
72.04324596774195
 31
0.0
  0
LINE
  5
252
330
250
100
AcDbEntity
  8
1
  6
Continuous
 62
     2
100
AcDbLine
 10
-79.1849474912486
 20
110.043245967742
 30
0.0
 11
-79.1849474912486
 21
92.79324596774195
 31
0.0
  0
LINE
  5
253
330
250
100
AcDbEntity
  8
1
  6
Continuous
 62
     2
100
AcDbLine
 10
-69.73718844075366
 20
72.04324596774195
 30
0.0
 11
-79.6849474912486
 21
72.04324596774195
 31
0.0
  0
LINE
  5
254
330
250
100
AcDbEntity
  8
1
  6
Continuous
 62
     2
100
AcDbLine
 10
-72.04395161290331
 20
110.043245967742
 30
0.0
 11
-79.6849474912486
 21
110.043245967742
 31
0.0
  0
SOLID
  5
255
330
250
100
AcDbEntity
  8
1
 62
     2
100
AcDbTrace
 10
-78.9874687448675
 20
108.543245967742
 30
0.0
 11
-79.38242623762969
 21
108.543245967742
 31
0.0
 12
-79.1849474912486
 22
110.043245967742
 32
0.0
 13
-79.1849474912486
 23
110.043245967742
 33
0.0
  0
SOLID
  5
256
330
250
100
AcDbEntity
  8
1
 62
     2
100
AcDbTrace
 10
-79.38242623762969
 20
73.54324596774195
 30
0.0
 11
-78.9874687448675
 21
73.54324596774195
 31
0.0
 12
-79.1849474912486
 22
72.04324596774195
 32
0.0
 13
-79.1849474912486
 23
72.04324596774195
 33
0.0
  0
MTEXT
  5
257
330
250
100
AcDbEntity
  8
1
 62
     4
100
AcDbMText
 10
-80.3099474912486
 20
90.29324596774195
 30
0.0
 40
1.5
 41
0.0
 71
     7
 72
     1
  1
38
  7
CONVERTER_11
 11
0.9999999999970619
 21
2.424068405545306E-6
 31
0.0
 73
     1
 44
0.60024009603842
  0
ENDBLK
  5
259
330
250
100
AcDbEntity
  8
0
100
AcDbBlockEnd
  0
BLOCK
  5
264
330
25C
100
AcDbEntity
  8
0
100
AcDbBlockBegin
  2
*D2
 70
     1
 10
0.0
 20
0.0
 30
0.0
  3
*D2
  1

  0
LINE
  5
25D
330
25C
100
AcDbEntity
  8
1
  6
Continuous
 62
     2
100
AcDbLine
 10
-73.7939516129033
 20
114.836629505685
 30
0.0
 11
-53.79395161290331
 21
114.836629505685
 31
0.0
  0
LINE
  5
25E
330
25C
100
AcDbEntity
  8
1
  6
Continuous
 62
     2
100
AcDbLine
 10
-53.79395161290331
 20
94.2932454909048
 30
0.0
 11
-53.79395161290331
 21
115.336629505685
 31
0.0
  0
LINE
  5
25F
330
25C
100
AcDbEntity
  8
1
  6
Continuous
 62
     2
100
AcDbLine
 10
-73.7939516129033
 20
110.9567885078809
 30
0.0
 11
-73.7939516129033
 21
115.336629505685
 31
0.0
  0
LINE
  5
260
330
25C
100
AcDbEntity
  8
1
  6
Continuous
 62
     2
100
AcDbLine
 10
-73.7939516129033
 20
94.2932454909048
 30
0.0
 11
-73.7939516129033
 21
109.0911661990047
 31
0.0
  0
SOLID
  5
261
330
25C
100
AcDbEntity
  8
1
 62
     2
100
AcDbTrace
 10
-72.2939516129033
 20
115.0341082520661
 30
0.0
 11
-72.2939516129033
 21
114.6391507593039
 31
0.0
 12
-73.7939516129033
 22
114.836629505685
 32
0.0
 13
-73.7939516129033
 23
114.836629505685
 33
0.0
  0
SOLID
  5
262
330
25C
100
AcDbEntity
  8
1
 62
     2
100
AcDbTrace
 10
-55.29395161290331
 20
114.6391507593039
 30
0.0
 11
-55.29395161290331
 21
115.0341082520661
 31
0.0
 12
-53.79395161290331
 22
114.836629505685
 32
0.0
 13
-53.79395161290331
 23
114.836629505685
 33
0.0
  0
MTEXT
  5
263
330
25C
100
AcDbEntity
  8
1
 62
     4
100
AcDbMText
 10
-65.32395161289968
 20
115.8366265240809
 30
0.0
 40
1.5
 41
0.0
 71
     7
 72
     1
  1
\C4;\U+00f8\C4;20
  7
CONVERTER_11
 11
0.9999999999970619
 21
2.424068405545306E-6
 31
0.0
 73
     1
 44
0.60024009603842
  0
ENDBLK
  5
265
330
25C
100
AcDbEntity
  8
0
100
AcDbBlockEnd
  0
BLOCK
  5
26F
330
268
100
AcDbEntity
  8
0
100
AcDbBlockBegin
  2
*D3
 70
     1
 10
0.0
 20
0.0
 30
0.0
  3
*D3
  1

  0
LINE
  5
269
330
268
100
AcDbEntity
  8
1
  6
Continuous
 62
     2
100
AcDbLine
 10
-34.49177945564617
 20
114.823101043151
 30
0.0
 11
-26.29177945564618
 21
114.823101043151
 31
0.0
  0
LINE
  5
26A
330
268
100
AcDbEntity
  8
1
  6
Continuous
 62
     2
100
AcDbLine
 10
-26.29177945564618
 20
107.5987595948749
 30
0.0
 11
-26.29177945564618
 21
115.323101043151
 31
0.0
  0
LINE
  5
26B
330
268
100
AcDbEntity
  8
1
  6
Continuous
 62
     2
100
AcDbLine
 10
-34.49177945564617
 20
107.5987595948749
 30
0.0
 11
-34.49177945564617
 21
115.323101043151
 31
0.0
  0
SOLID
  5
26C
330
268
100
AcDbEntity
  8
1
 62
     2
100
AcDbTrace
 10
-32.74177945564617
 20
115.0534929139289
 30
0.0
 11
-32.74177945564617
 21
114.5927091723731
 31
0.0
 12
-34.49177945564617
 22
114.823101043151
 32
0.0
 13
-34.49177945564617
 23
114.823101043151
 33
0.0
  0
SOLID
  5
26D
330
268
100
AcDbEntity
  8
1
 62
     2
100
AcDbTrace
 10
-28.04177945564618
 20
114.5927091723731
 30
0.0
 11
-28.04177945564618
 21
115.0534929139289
 31
0.0
 12
-26.29177945564618
 22
114.823101043151
 32
0.0
 13
-26.29177945564618
 23
114.823101043151
 33
0.0
  0
MTEXT
  5
26E
330
268
100
AcDbEntity
  8
1
 62
     4
100
AcDbMText
 10
-32.21177945563774
 20
115.8230940860747
 30
0.0
 40
1.75
 41
0.0
 71
     7
 72
     1
  1
\C4; {\Fgdt;n}\C4;A\C4;
  7
CONVERTER_11
 11
0.9999999999970619
 21
2.424068405545306E-6
 31
0.0
 73
     1
 44
0.60024009603842
  0
ENDBLK
  5
270
330
268
100
AcDbEntity
  8
0
100
AcDbBlockEnd
  0
ENDSEC
  0
SECTION
  2
ENTITIES
  0
LINE
  5
47
330
1F
100
AcDbEntity
  8
1
  6
Continuous
 62
     7
100
AcDbLine
 10
-27.59999999999955
 20
56.43876067704494
 30
0.0
 11
-27.59999999999955
 21
37.63876067704476
 31
0.0
  0
LINE
  5
48
330
1F
100
AcDbEntity
  8
0
  6
Continuous
 62
     7
100
AcDbLine
 10
-24.59177945564602
 20
110.043245967742
 30
0.0
 11
-36.19177945564616
 21
110.043245967742
 31
0.0
  0
LINE
  5
49
102
{ACAD_REACTORS
330
273
102
}
330
1F
100
AcDbEntity
  8
0
  6
Continuous
 62
     7
100
AcDbLine
 10
-36.19177945564616
 20
110.043245967742
 30
0.0
 11
-38.3917794556462
 21
110.043245967742
 31
0.0
  0
LINE
  5
4A
330
1F
100
AcDbEntity
  8
0
  6
Continuous
 62
     7
100
AcDbLine
 10
-25.86007750645941
 20
92.89324587237452
 30
0.0
 11
-20.39177897880904
 21
92.89324587237452
 31
0.0
  0
LINE
  5
4B
330
1F
100
AcDbEntity
  8
0
  6
Continuous
 62
     7
100
AcDbLine
 10
-25.75130875130836
 20
93.0432454909048
 30
0.0
 11
-20.54178050468795
 21
93.0432454909048
 31
0.0
  0
LINE
  5
4C
330
1F
100
AcDbEntity
  8
0
  6
Continuous
 62
     7
100
AcDbLine
 10
-25.65011337564206
 20
93.19324606310938
 30
0.0
 11
-20.39177897880904
 21
93.19324606310938
 31
0.0
  0
LINE
  5
4D
330
1F
100
AcDbEntity
  8
0
  6
Continuous
 62
     7
100
AcDbLine
 10
-25.12892265029235
 20
94.0432454909048
 30
0.0
 11
-20.39177897880904
 21
94.0432454909048
 31
0.0
  0
LINE
  5
4E
330
1F
100
AcDbEntity
  8
0
  6
Continuous
 62
     7
100
AcDbLine
 10
-24.29178002785081
 20
95.0432454909048
 30
0.0
 11
-24.29694703529711
 21
94.7560321654043
 31
0.0
  0
LINE
  5
4F
330
1F
100
AcDbEntity
  8
0
  6
Continuous
 62
     7
100
AcDbLine
 10
-24.29694703529711
 20
94.7560321654043
 30
0.0
 11
-24.29011586616868
 21
94.70122545611476
 31
0.0
  0
LINE
  5
50
330
1F
100
AcDbEntity
  8
0
  6
Continuous
 62
     7
100
AcDbLine
 10
-24.29011586616868
 20
94.70122545611476
 30
0.0
 11
-24.1339683861577
 21
94.44317668330287
 31
0.0
  0
LINE
  5
51
330
1F
100
AcDbEntity
  8
0
  6
Continuous
 62
     7
100
AcDbLine
 10
-24.1339683861577
 20
94.44317668330287
 30
0.0
 11
-24.11812070320482
 21
94.4004585112295
 31
0.0
  0
LINE
  5
52
330
1F
100
AcDbEntity
  8
0
  6
Continuous
 62
     7
100
AcDbLine
 10
-24.11812070320482
 20
94.4004585112295
 30
0.0
 11
-23.86885169456835
 21
94.20334642779444
 31
0.0
  0
LINE
  5
53
330
1F
100
AcDbEntity
  8
0
  6
Continuous
 62
     7
100
AcDbLine
 10
-23.86885169456835
 20
94.20334642779444
 30
0.0
 11
-23.85460904548997
 21
94.1772205198965
 31
0.0
  0
LINE
  5
54
330
1F
100
AcDbEntity
  8
0
  6
Continuous
 62
     7
100
AcDbLine
 10
-23.85460904548997
 20
94.1772205198965
 30
0.0
 11
-23.51966050575609
 21
94.06626289736842
 31
0.0
  0
LINE
  5
55
330
1F
100
AcDbEntity
  8
0
  6
Continuous
 62
     7
100
AcDbLine
 10
-23.51966050575609
 20
94.06626289736842
 30
0.0
 11
-23.53136399696702
 21
94.05843752276515
 31
0.0
  0
LINE
  5
56
330
1F
100
AcDbEntity
  8
0
  6
Continuous
 62
     7
100
AcDbLine
 10
-23.53136399696702
 20
94.05843752276515
 30
0.0
 11
-23.30524638603563
 21
94.0432454909048
 31
0.0
  0
LINE
  5
57
330
1F
100
AcDbEntity
  8
1
  6
DOT_CENTER
 62
     2
100
AcDbLine
 10
-30.39177969406478
 20
115.5204090613832
 30
0.0
 11
-30.39177969406478
 21
67.9980663882375
 31
0.0
  0
LINE
  5
58
330
1F
100
AcDbEntity
  8
1
  6
DOT_CENTER
 62
     2
100
AcDbLine
 10
-63.79395161290331
 20
115.5204090613832
 30
0.0
 11
-63.79395161290331
 21
67.9980663882375
 31
0.0
  0
LINE
  5
59
102
{ACAD_REACTORS
330
273
102
}
330
1F
100
AcDbEntity
  8
0
  6
Continuous
 62
     7
100
AcDbLine
 10
-30.3917794556462
 20
93.05096800725057
 30
0.0
 11
-34.49177945564617
 21
94.54324596774195
 31
0.0
  0
LINE
  5
5A
102
{ACAD_REACTORS
330
273
102
}
330
1F
100
AcDbEntity
  8
0
  6
Continuous
 62
     7
100
AcDbLine
 10
-34.49177945564617
 20
94.54324596774195
 30
0.0
 11
-34.49177945564617
 21
107.098759594875
 31
0.0
  0
LINE
  5
5B
330
1F
100
AcDbEntity
  8
0
  6
Continuous
 62
     7
100
AcDbLine
 10
-26.29177945564618
 20
107.098759594875
 30
0.0
 11
-34.49177945564617
 21
107.098759594875
 31
0.0
  0
LINE
  5
5C
330
1F
100
AcDbEntity
  8
0
  6
Continuous
 62
     7
100
AcDbLine
 10
-26.29177945564618
 20
94.54324596774195
 30
0.0
 11
-34.49177945564617
 21
94.54324596774195
 31
0.0
  0
LINE
  5
5D
102
{ACAD_REACTORS
330
273
102
}
330
1F
100
AcDbEntity
  8
0
  6
Continuous
 62
     7
100
AcDbLine
 10
-34.49177945564617
 20
107.098759594875
 30
0.0
 11
-36.19177945564616
 21
110.043245967742
 31
0.0
  0
LINE
  5
5E
102
{ACAD_REACTORS
330
273
102
}
330
1F
100
AcDbEntity
  8
0
  6
Continuous
 62
     7
100
AcDbLine
 10
-26.29177945564618
 20
107.098759594875
 30
0.0
 11
-24.59177945564602
 21
110.043245967742
 31
0.0
  0
LINE
  5
5F
102
{ACAD_REACTORS
330
273
102
}
330
1F
100
AcDbEntity
  8
0
  6
Continuous
 62
     7
100
AcDbLine
 10
-26.29177945564618
 20
94.54324596774195
 30
0.0
 11
-26.29177945564618
 21
107.098759594875
 31
0.0
  0
LINE
  5
60
102
{ACAD_REACTORS
330
273
102
}
330
1F
100
AcDbEntity
  8
0
  6
Continuous
 62
     7
100
AcDbLine
 10
-30.3917794556462
 20
93.05096800725057
 30
0.0
 11
-26.29177945564618
 21
94.54324596774195
 31
0.0
  0
LINE
  5
61
330
1F
100
AcDbEntity
  8
0
  6
Continuous
 62
     7
100
AcDbLine
 10
-40.24177936027878
 20
93.0432454909048
 30
0.0
 11
-34.46208740015632
 21
93.04324549090478
 31
0.0
  0
LINE
  5
62
330
1F
100
AcDbEntity
  8
0
  6
Continuous
 62
     7
100
AcDbLine
 10
-40.39177993248337
 20
94.0432454909048
 30
0.0
 11
-35.5709164307508
 21
94.0432454909048
 31
0.0
  0
LINE
  5
63
330
1F
100
AcDbEntity
  8
0
  6
Continuous
 62
     7
100
AcDbLine
 10
-40.39177993248337
 20
91.04324549081475
 30
0.0
 11
-20.39177897880904
 21
91.04324549081475
 31
0.0
  0
LINE
  5
64
330
1F
100
AcDbEntity
  8
0
  6
Continuous
 62
     7
100
AcDbLine
 10
-40.39177993248337
 20
92.89324587237452
 30
0.0
 11
-34.28165119682556
 21
92.89324587237452
 31
0.0
  0
LINE
  5
65
330
1F
100
AcDbEntity
  8
0
  6
Continuous
 62
     7
100
AcDbLine
 10
-40.39177993248337
 20
93.19324606310938
 30
0.0
 11
-34.63497117066056
 21
93.19324606310938
 31
0.0
  0
LINE
  5
66
102
{ACAD_REACTORS
330
273
102
}
330
1F
100
AcDbEntity
  8
0
  6
Continuous
 62
     7
100
AcDbLine
 10
-22.39177993248336
 20
110.043245967742
 30
0.0
 11
-24.59177945564602
 21
110.043245967742
 31
0.0
  0
LINE
  5
67
330
1F
100
AcDbEntity
  8
0
  6
Continuous
 62
     2
100
AcDbLine
 10
-33.19769760631348
 20
79.04324596774195
 30
0.0
 11
-33.19913700531356
 21
79.04324596774195
 31
0.0
  0
LINE
  5
68
330
1F
100
AcDbEntity
  8
0
  6
Continuous
 62
     2
100
AcDbLine
 10
-27.58586154366226
 20
79.04324596774195
 30
0.0
 11
-27.58442190597884
 21
79.04324596774195
 31
0.0
  0
LINE
  5
69
330
1F
100
AcDbEntity
  8
0
  6
Continuous
 62
     2
100
AcDbLine
 10
-33.19913700531356
 20
79.04324596774195
 30
0.0
 11
-27.58442190597884
 21
79.04324596774195
 31
0.0
  0
LINE
  5
6A
330
1F
100
AcDbEntity
  8
0
  6
Continuous
 62
     7
100
AcDbLine
 10
-33.19753414188483
 20
78.0430461013096
 30
0.0
 11
-33.31354120682114
 21
79.2167746390066
 31
0.0
  0
LINE
  5
6B
330
1F
100
AcDbEntity
  8
0
  6
Continuous
 62
     2
100
AcDbLine
 10
-34.06008056114548
 20
79.0443999136648
 30
0.0
 11
-34.06373480270737
 21
79.11516826998805
 31
0.0
  0
LINE
  5
6C
330
1F
100
AcDbEntity
  8
0
  6
Continuous
 62
     2
100
AcDbLine
 10
-34.06516245315903
 20
79.04324596774195
 30
0.0
 11
-34.06008056114548
 21
79.0443999136648
 31
0.0
  0
LINE
  5
6D
330
1F
100
AcDbEntity
  8
0
  6
Continuous
 62
     7
100
AcDbLine
 10
-36.86254396362878
 20
79.04324596753385
 30
0.0
 11
-36.52317479561202
 21
75.61525219332789
 31
0.0
  0
LINE
  5
6E
330
1F
100
AcDbEntity
  8
0
  6
Continuous
 62
     7
100
AcDbLine
 10
-36.52317479561202
 20
75.61525219332789
 30
0.0
 11
-36.1766858429753
 21
72.04324596774195
 31
0.0
  0
LINE
  5
6F
330
1F
100
AcDbEntity
  8
0
  6
Continuous
 62
     7
100
AcDbLine
 10
-36.86254396362878
 20
79.04324596753385
 30
0.0
 11
-36.52317479561202
 21
75.61525219332789
 31
0.0
  0
LINE
  5
70
330
1F
100
AcDbEntity
  8
0
  6
Continuous
 62
     7
100
AcDbLine
 10
-33.3718991608464
 20
72.04324596774195
 30
0.0
 11
-34.06373480270737
 21
79.11516826998805
 31
0.0
  0
LINE
  5
71
330
1F
100
AcDbEntity
  8
0
  6
Continuous
 62
     7
100
AcDbLine
 10
-33.19769760631348
 20
79.04324596774195
 30
0.0
 11
-33.19713738869064
 21
75.61525219332789
 31
0.0
  0
LINE
  5
72
330
1F
100
AcDbEntity
  8
0
  6
Continuous
 62
     7
100
AcDbLine
 10
-33.19713738869064
 20
75.61525219332789
 30
0.0
 11
-33.19656589935653
 21
72.04324596774194
 31
0.0
  0
LINE
  5
73
330
1F
100
AcDbEntity
  8
0
  6
Continuous
 62
     7
100
AcDbLine
 10
-33.19657158300633
 20
72.07807491895524
 30
0.0
 11
-33.3718991608464
 21
72.04324596774195
 31
0.0
  0
LINE
  5
74
330
1F
100
AcDbEntity
  8
0
  6
Continuous
 62
     2
100
AcDbLine
 10
-34.06516245315903
 20
79.04324596774195
 30
0.0
 11
-36.83617118309371
 21
79.04324596774195
 31
0.0
  0
LINE
  5
75
330
1F
100
AcDbEntity
  8
0
  6
Continuous
 62
     2
100
AcDbLine
 10
-36.83617118309371
 20
79.04324596774195
 30
0.0
 11
-36.86254396362878
 21
79.04324596753385
 31
0.0
  0
LINE
  5
76
330
1F
100
AcDbEntity
  8
0
  6
Continuous
 62
     2
100
AcDbLine
 10
-36.86254396362878
 20
79.04324596753385
 30
0.0
 11
-36.87252000282639
 21
79.04324596774195
 31
0.0
  0
LINE
  5
77
330
1F
100
AcDbEntity
  8
0
  6
Continuous
 62
     2
100
AcDbLine
 10
-36.87252000282639
 20
79.04324596774195
 30
0.0
 11
-36.86254396362878
 21
79.04324596753385
 31
0.0
  0
LINE
  5
78
330
1F
100
AcDbEntity
  8
0
  6
Continuous
 62
     2
100
AcDbLine
 10
-33.50742844055527
 20
79.1698824728689
 30
0.0
 11
-34.06373480270737
 21
79.11516826998805
 31
0.0
  0
LINE
  5
79
330
1F
100
AcDbEntity
  8
0
  6
Continuous
 62
     2
100
AcDbLine
 10
-33.40984490822189
 20
79.19201916110133
 30
0.0
 11
-33.50742844055527
 21
79.1698824728689
 31
0.0
  0
LINE
  5
7A
330
1F
100
AcDbEntity
  8
0
  6
Continuous
 62
     2
100
AcDbLine
 10
-33.31226089905135
 20
79.21414821993922
 30
0.0
 11
-33.31325925055843
 21
79.2139218807534
 31
0.0
  0
LINE
  5
7B
330
1F
100
AcDbEntity
  8
0
  6
Continuous
 62
     2
100
AcDbLine
 10
-33.31325925055843
 20
79.2139218807534
 30
0.0
 11
-33.40984490822189
 21
79.19201916110133
 31
0.0
  0
LINE
  5
7C
330
1F
100
AcDbEntity
  8
0
  6
Continuous
 62
     7
100
AcDbLine
 10
-36.87252000282639
 20
86.54324644457911
 30
0.0
 11
-36.87252000282639
 21
79.04324596774195
 31
0.0
  0
LINE
  5
7D
330
1F
100
AcDbEntity
  8
0
  6
Continuous
 62
     7
100
AcDbLine
 10
-34.06516245315903
 20
86.54324644457911
 30
0.0
 11
-34.06516245315903
 21
79.04324596774195
 31
0.0
  0
LINE
  5
7E
330
1F
100
AcDbEntity
  8
0
  6
Continuous
 62
     7
100
AcDbLine
 10
-33.19913700531356
 20
86.54324644457911
 30
0.0
 11
-33.19913700531356
 21
79.04324596774195
 31
0.0
  0
LINE
  5
7F
330
1F
100
AcDbEntity
  8
0
  6
Continuous
 62
     7
100
AcDbLine
 10
-33.19913700531356
 20
86.54324644457911
 30
0.0
 11
-33.19913700531356
 21
79.04324596774195
 31
0.0
  0
LINE
  5
80
330
1F
100
AcDbEntity
  8
0
  6
Continuous
 62
     7
100
AcDbLine
 10
-36.87252000282639
 20
86.54324644457911
 30
0.0
 11
-36.87252000282639
 21
79.04324596774195
 31
0.0
  0
LINE
  5
81
330
1F
100
AcDbEntity
  8
0
  6
Continuous
 62
     7
100
AcDbLine
 10
-33.31226089905135
 20
86.54324644457911
 30
0.0
 11
-33.31226089905135
 21
79.21414821993922
 31
0.0
  0
LINE
  5
82
330
1F
100
AcDbEntity
  8
0
  6
Continuous
 62
     7
100
AcDbLine
 10
-36.87252000282639
 20
86.54324644457911
 30
0.0
 11
-36.8917794556462
 21
86.54324644457911
 31
0.0
  0
LINE
  5
83
330
1F
100
AcDbEntity
  8
0
  6
Continuous
 62
     7
100
AcDbLine
 10
-33.19913700531356
 20
86.54324644457911
 30
0.0
 11
-34.06516245315903
 21
86.54324644457911
 31
0.0
  0
LINE
  5
84
330
1F
100
AcDbEntity
  8
0
  6
Continuous
 62
     7
100
AcDbLine
 10
-27.58602493584272
 20
78.04304441736322
 30
0.0
 11
-27.47029967586445
 21
79.21392172766737
 31
0.0
  0
LINE
  5
85
330
1F
100
AcDbEntity
  8
0
  6
Continuous
 62
     7
100
AcDbLine
 10
-27.58602493584272
 20
78.04304441736322
 30
0.0
 11
-27.47001770447128
 21
79.2167746390066
 31
0.0
  0
LINE
  5
86
330
1F
100
AcDbEntity
  8
0
  6
Continuous
 62
     2
100
AcDbLine
 10
-26.71982434700362
 20
79.11516826998805
 30
0.0
 11
-26.72347835014693
 21
79.0443999136648
 31
0.0
  0
LINE
  5
87
330
1F
100
AcDbEntity
  8
0
  6
Continuous
 62
     2
100
AcDbLine
 10
-26.71839645813338
 20
79.04324596774195
 30
0.0
 11
-26.72347835014693
 21
79.0443999136648
 31
0.0
  0
LINE
  5
88
330
1F
100
AcDbEntity
  8
0
  6
Continuous
 62
     7
100
AcDbLine
 10
-27.5869927735173
 20
72.04324596774195
 30
0.0
 11
-27.58642152260178
 21
75.61525219332789
 31
0.0
  0
LINE
  5
89
330
1F
100
AcDbEntity
  8
0
  6
Continuous
 62
     7
100
AcDbLine
 10
-27.58642152260178
 20
75.61525219332789
 30
0.0
 11
-27.58586154366226
 21
79.04324596774195
 31
0.0
  0
LINE
  5
8A
330
1F
100
AcDbEntity
  8
0
  6
Continuous
 62
     7
100
AcDbLine
 10
-27.41165975044601
 20
72.04324596774195
 30
0.0
 11
-26.71982434700362
 21
79.11516826998805
 31
0.0
  0
LINE
  5
8B
330
1F
100
AcDbEntity
  8
0
  6
Continuous
 62
     7
100
AcDbLine
 10
-27.41165975044601
 20
72.04324596774195
 30
0.0
 11
-27.53584578941695
 21
72.06791561495875
 31
0.0
  0
LINE
  5
8C
330
1F
100
AcDbEntity
  8
0
  6
Continuous
 62
     7
100
AcDbLine
 10
-27.53584578941695
 20
72.06791561495875
 30
0.0
 11
-27.58698708967559
 21
72.07807485205086
 31
0.0
  0
LINE
  5
8D
330
1F
100
AcDbEntity
  8
0
  6
Continuous
 62
     7
100
AcDbLine
 10
-23.92101494766362
 20
79.04324596753385
 30
0.0
 11
-24.26038411568038
 21
75.61525219332789
 31
0.0
  0
LINE
  5
8E
330
1F
100
AcDbEntity
  8
0
  6
Continuous
 62
     7
100
AcDbLine
 10
-24.26038411568038
 20
75.61525219332789
 30
0.0
 11
-24.60687306831709
 21
72.04324596774195
 31
0.0
  0
LINE
  5
8F
330
1F
100
AcDbEntity
  8
0
  6
Continuous
 62
     2
100
AcDbLine
 10
-26.71982434700362
 20
79.11516826998805
 30
0.0
 11
-27.27613047073714
 21
79.1698824728689
 31
0.0
  0
LINE
  5
90
330
1F
100
AcDbEntity
  8
0
  6
Continuous
 62
     2
100
AcDbLine
 10
-27.27613047073714
 20
79.1698824728689
 30
0.0
 11
-27.37371400307053
 21
79.19201916110133
 31
0.0
  0
LINE
  5
91
330
1F
100
AcDbEntity
  8
0
  6
Continuous
 62
     2
100
AcDbLine
 10
-27.37371400307053
 20
79.19201916110133
 30
0.0
 11
-27.47029967586445
 21
79.21392172766737
 31
0.0
  0
LINE
  5
92
330
1F
100
AcDbEntity
  8
0
  6
Continuous
 62
     2
100
AcDbLine
 10
-27.47029967586445
 20
79.21392172766737
 30
0.0
 11
-27.47129825065963
 21
79.21414821993922
 31
0.0
  0
LINE
  5
93
330
1F
100
AcDbEntity
  8
0
  6
Continuous
 62
     2
100
AcDbLine
 10
-23.92101494766362
 20
79.04324596753385
 30
0.0
 11
-23.91103890846603
 21
79.04324596774195
 31
0.0
  0
LINE
  5
94
330
1F
100
AcDbEntity
  8
0
  6
Continuous
 62
     2
100
AcDbLine
 10
-23.94738772819869
 20
79.04324596774195
 30
0.0
 11
-26.71839645813338
 21
79.04324596774195
 31
0.0
  0
LINE
  5
95
330
1F
100
AcDbEntity
  8
0
  6
Continuous
 62
     2
100
AcDbLine
 10
-23.91103890846603
 20
79.04324596774195
 30
0.0
 11
-23.92101494766362
 21
79.04324596753385
 31
0.0
  0
LINE
  5
96
330
1F
100
AcDbEntity
  8
0
  6
Continuous
 62
     2
100
AcDbLine
 10
-23.92101494766362
 20
79.04324596753385
 30
0.0
 11
-23.94738772819869
 21
79.04324596774195
 31
0.0
  0
LINE
  5
97
330
1F
100
AcDbEntity
  8
0
  6
Continuous
 62
     2
100
AcDbLine
 10
-26.45942882011764
 20
79.04433506381129
 30
0.0
 11
-23.98597243736617
 21
79.04433506381129
 31
0.0
  0
LINE
  5
98
330
1F
100
AcDbEntity
  8
0
  6
Continuous
 62
     7
100
AcDbLine
 10
-27.58442190597884
 20
86.54324644457911
 30
0.0
 11
-27.58442190597884
 21
79.04324596774195
 31
0.0
  0
LINE
  5
99
330
1F
100
AcDbEntity
  8
0
  6
Continuous
 62
     7
100
AcDbLine
 10
-26.71839645813338
 20
86.54324644457911
 30
0.0
 11
-26.71839645813338
 21
79.04324596774195
 31
0.0
  0
LINE
  5
9A
330
1F
100
AcDbEntity
  8
0
  6
Continuous
 62
     7
100
AcDbLine
 10
-23.91103890846603
 20
86.54324644457911
 30
0.0
 11
-23.91103890846603
 21
79.04324596774195
 31
0.0
  0
LINE
  5
9B
330
1F
100
AcDbEntity
  8
0
  6
Continuous
 62
     7
100
AcDbLine
 10
-23.91103890846603
 20
86.54324644457911
 30
0.0
 11
-23.91103890846603
 21
79.04324596774195
 31
0.0
  0
LINE
  5
9C
330
1F
100
AcDbEntity
  8
0
  6
Continuous
 62
     7
100
AcDbLine
 10
-27.58442190597884
 20
86.54324644457911
 30
0.0
 11
-27.58442190597884
 21
79.04324596774195
 31
0.0
  0
LINE
  5
9D
330
1F
100
AcDbEntity
  8
0
  6
Continuous
 62
     7
100
AcDbLine
 10
-27.47129825065963
 20
86.54324644457911
 30
0.0
 11
-27.47129825065963
 21
79.21414821993922
 31
0.0
  0
LINE
  5
9E
330
1F
100
AcDbEntity
  8
0
  6
Continuous
 62
     7
100
AcDbLine
 10
-26.71839645813338
 20
86.54324644457911
 30
0.0
 11
-27.58442190597884
 21
86.54324644457911
 31
0.0
  0
LINE
  5
9F
330
1F
100
AcDbEntity
  8
0
  6
Continuous
 62
     7
100
AcDbLine
 10
-23.8917794556462
 20
86.54324644457911
 30
0.0
 11
-23.91103890846603
 21
86.54324644457911
 31
0.0
  0
LINE
  5
A0
330
1F
100
AcDbEntity
  8
0
  6
Continuous
 62
     7
100
AcDbLine
 10
-37.47831300209396
 20
94.0432454909048
 30
0.0
 11
-37.25219539116257
 21
94.05843752276515
 31
0.0
  0
LINE
  5
A1
330
1F
100
AcDbEntity
  8
0
  6
Continuous
 62
     7
100
AcDbLine
 10
-37.25219539116257
 20
94.05843752276515
 30
0.0
 11
-37.2638988823735
 21
94.06626289736842
 31
0.0
  0
LINE
  5
A2
330
1F
100
AcDbEntity
  8
0
  6
Continuous
 62
     7
100
AcDbLine
 10
-37.2638988823735
 20
94.06626289736842
 30
0.0
 11
-36.92895034263962
 21
94.1772205198965
 31
0.0
  0
LINE
  5
A3
330
1F
100
AcDbEntity
  8
0
  6
Continuous
 62
     7
100
AcDbLine
 10
-36.92895034263962
 20
94.1772205198965
 30
0.0
 11
-36.91470769356124
 21
94.20334642779444
 31
0.0
  0
LINE
  5
A4
330
1F
100
AcDbEntity
  8
0
  6
Continuous
 62
     7
100
AcDbLine
 10
-36.91470769356124
 20
94.20334642779444
 30
0.0
 11
-36.66543868492477
 21
94.4004585112295
 31
0.0
  0
LINE
  5
A5
330
1F
100
AcDbEntity
  8
0
  6
Continuous
 62
     7
100
AcDbLine
 10
-36.66543868492477
 20
94.4004585112295
 30
0.0
 11
-36.64959100197189
 21
94.44317668330287
 31
0.0
  0
LINE
  5
A6
330
1F
100
AcDbEntity
  8
0
  6
Continuous
 62
     7
100
AcDbLine
 10
-36.64959100197189
 20
94.44317668330287
 30
0.0
 11
-36.49344352196091
 21
94.70122545611476
 31
0.0
  0
LINE
  5
A7
330
1F
100
AcDbEntity
  8
0
  6
Continuous
 62
     7
100
AcDbLine
 10
-36.49344352196091
 20
94.70122545611476
 30
0.0
 11
-36.48661235283248
 21
94.7560321654043
 31
0.0
  0
LINE
  5
A8
102
{ACAD_REACTORS
330
273
102
}
330
1F
100
AcDbEntity
  8
0
  6
Continuous
 62
     7
100
AcDbLine
 10
-24.29177955101363
 20
95.0432454909048
 30
0.0
 11
-24.29177955101363
 21
106.446280177947
 31
0.0
  0
LINE
  5
A9
102
{ACAD_REACTORS
330
273
102
}
330
1F
100
AcDbEntity
  8
0
  6
Continuous
 62
     7
100
AcDbLine
 10
-36.49177936027878
 20
106.446280177947
 30
0.0
 11
-36.49177936027878
 21
95.0432454909048
 31
0.0
  0
LINE
  5
AA
102
{ACAD_REACTORS
330
273
102
}
330
1F
100
AcDbEntity
  8
0
  6
Continuous
 62
     7
100
AcDbLine
 10
-36.48661235283248
 20
94.7560321654043
 30
0.0
 11
-36.49177936027878
 21
95.0432454909048
 31
0.0
  0
LINE
  5
AB
330
1F
100
AcDbEntity
  8
0
  6
Continuous
 62
     7
100
AcDbLine
 10
-36.8917794556462
 20
86.54324644457911
 30
0.0
 11
-36.8917794556462
 21
90.5432454909048
 31
0.0
  0
LINE
  5
AC
330
1F
100
AcDbEntity
  8
0
  6
Continuous
 62
     7
100
AcDbLine
 10
-23.8917794556462
 20
86.54324644457911
 30
0.0
 11
-23.8917794556462
 21
90.5432454909048
 31
0.0
  0
LINE
  5
AD
330
1F
100
AcDbEntity
  8
0
  6
Continuous
 62
     7
100
AcDbLine
 10
-23.8917794556462
 20
90.5432454909048
 30
0.0
 11
-23.9683814377629
 21
90.67083432924365
 31
0.0
  0
LINE
  5
AE
330
1F
100
AcDbEntity
  8
0
  6
Continuous
 62
     7
100
AcDbLine
 10
-23.9683814377629
 20
90.67083432924365
 30
0.0
 11
-23.88802007149094
 21
90.8646394575796
 31
0.0
  0
LINE
  5
AF
330
1F
100
AcDbEntity
  8
0
  6
Continuous
 62
     7
100
AcDbLine
 10
-23.88802007149094
 20
90.8646394575796
 30
0.0
 11
-23.5851970047795
 21
91.01810542520498
 31
0.0
  0
LINE
  5
B0
330
1F
100
AcDbEntity
  8
0
  6
Continuous
 62
     7
100
AcDbLine
 10
-23.5851970047795
 20
91.01810542520498
 30
0.0
 11
-23.59689000557296
 21
91.03564947497462
 31
0.0
  0
LINE
  5
B1
330
1F
100
AcDbEntity
  8
0
  6
Continuous
 62
     7
100
AcDbLine
 10
-36.8917794556462
 20
90.5432454909048
 30
0.0
 11
-36.8151774735295
 21
90.67083432924365
 31
0.0
  0
LINE
  5
B2
330
1F
100
AcDbEntity
  8
0
  6
Continuous
 62
     7
100
AcDbLine
 10
-36.8151774735295
 20
90.67083432924365
 30
0.0
 11
-36.89553883980148
 21
90.8646394575796
 31
0.0
  0
LINE
  5
B3
330
1F
100
AcDbEntity
  8
0
  6
Continuous
 62
     7
100
AcDbLine
 10
-36.89553883980148
 20
90.8646394575796
 30
0.0
 11
-37.1983619065129
 21
91.01810542520498
 31
0.0
  0
LINE
  5
B4
330
1F
100
AcDbEntity
  8
0
  6
Continuous
 62
     7
100
AcDbLine
 10
-37.1983619065129
 20
91.01810542520498
 30
0.0
 11
-37.18666890571944
 21
91.03564947497462
 31
0.0
  0
LINE
  5
B5
330
1F
100
AcDbEntity
  8
0
  6
Continuous
 62
     7
100
AcDbLine
 10
-23.59689000557296
 20
91.03564947497462
 30
0.0
 11
-23.45166543434493
 21
91.04324549081475
 31
0.0
  0
LINE
  5
B6
330
1F
100
AcDbEntity
  8
0
  6
Continuous
 62
     7
100
AcDbLine
 10
-37.18666890571944
 20
91.03564947497462
 30
0.0
 11
-37.33189347694747
 21
91.04324549081475
 31
0.0
  0
LINE
  5
B7
102
{ACAD_REACTORS
330
273
102
}
330
1F
100
AcDbEntity
  8
0
  6
Continuous
 62
     7
100
AcDbLine
 10
-38.3917794556462
 20
107.543245967742
 30
0.0
 11
-36.49177936027878
 21
106.446280177947
 31
0.0
  0
LINE
  5
B8
102
{ACAD_REACTORS
330
273
102
}
330
1F
100
AcDbEntity
  8
0
  6
Continuous
 62
     7
100
AcDbLine
 10
-24.29177955101363
 20
106.446280177947
 30
0.0
 11
-22.39177993248336
 21
107.543245967742
 31
0.0
  0
LINE
  5
B9
102
{ACAD_REACTORS
330
273
102
}
330
1F
100
AcDbEntity
  8
0
  6
Continuous
 62
     7
100
AcDbLine
 10
-38.3917794556462
 20
110.043245967742
 30
0.0
 11
-38.3917794556462
 21
107.543245967742
 31
0.0
  0
LINE
  5
BA
102
{ACAD_REACTORS
330
273
102
}
330
1F
100
AcDbEntity
  8
0
  6
Continuous
 62
     7
100
AcDbLine
 10
-22.39177993248336
 20
107.543245967742
 30
0.0
 11
-22.39177993248336
 21
110.043245967742
 31
0.0
  0
LINE
  5
BB
330
1F
100
AcDbEntity
  8
0
  6
Continuous
 62
     7
100
AcDbLine
 10
-20.39177897880904
 20
92.89324587237452
 30
0.0
 11
-20.54178050468795
 21
93.0432454909048
 31
0.0
  0
LINE
  5
BC
330
1F
100
AcDbEntity
  8
0
  6
Continuous
 62
     7
100
AcDbLine
 10
-40.39177993248337
 20
92.89324587237452
 30
0.0
 11
-40.24177936027878
 21
93.0432454909048
 31
0.0
  0
LINE
  5
BD
330
1F
100
AcDbEntity
  8
0
  6
Continuous
 62
     7
100
AcDbLine
 10
-20.54178050468795
 20
93.0432454909048
 30
0.0
 11
-20.39177897880904
 21
93.19324606310938
 31
0.0
  0
LINE
  5
BE
330
1F
100
AcDbEntity
  8
0
  6
Continuous
 62
     7
100
AcDbLine
 10
-40.39177993248337
 20
93.19324606310938
 30
0.0
 11
-40.24177936027878
 21
93.0432454909048
 31
0.0
  0
LINE
  5
BF
330
1F
100
AcDbEntity
  8
0
  6
Continuous
 62
     7
100
AcDbLine
 10
-20.39177897880904
 20
93.19324606310938
 30
0.0
 11
-20.39177897880904
 21
94.0432454909048
 31
0.0
  0
LINE
  5
C0
330
1F
100
AcDbEntity
  8
0
  6
Continuous
 62
     7
100
AcDbLine
 10
-40.39177993248337
 20
93.19324606310938
 30
0.0
 11
-40.39177993248337
 21
94.0432454909048
 31
0.0
  0
LINE
  5
C1
330
1F
100
AcDbEntity
  8
0
  6
Continuous
 62
     7
100
AcDbLine
 10
-40.39177993248337
 20
92.89324587237452
 30
0.0
 11
-40.39177993248337
 21
91.04324549081475
 31
0.0
  0
LINE
  5
C2
330
1F
100
AcDbEntity
  8
0
  6
Continuous
 62
     7
100
AcDbLine
 10
-20.39177897880904
 20
91.04324549081475
 30
0.0
 11
-20.39177897880904
 21
92.89324587237452
 31
0.0
  0
LINE
  5
C3
330
1F
100
AcDbEntity
  8
0
  6
Continuous
 62
     7
100
AcDbLine
 10
-55.79395161290331
 20
110.043245967742
 30
0.0
 11
-71.7939516129033
 21
110.043245967742
 31
0.0
  0
LINE
  5
C4
330
1F
100
AcDbEntity
  8
0
  6
Continuous
 62
     7
100
AcDbLine
 10
-73.7939516129033
 20
94.0432454909048
 30
0.0
 11
-53.79395161290331
 21
94.0432454909048
 31
0.0
  0
LINE
  5
C5
330
1F
100
AcDbEntity
  8
0
  6
Continuous
 62
     7
100
AcDbLine
 10
-73.7939516129033
 20
91.04324549081475
 30
0.0
 11
-53.79395161290331
 21
91.04324549081475
 31
0.0
  0
LINE
  5
C6
330
1F
100
AcDbEntity
  8
0
  6
Continuous
 62
     7
100
AcDbLine
 10
-73.7939516129033
 20
92.89324587237452
 30
0.0
 11
-53.79395161290331
 21
92.89324587237452
 31
0.0
  0
LINE
  5
C7
330
1F
100
AcDbEntity
  8
0
  6
Continuous
 62
     7
100
AcDbLine
 10
-73.64395199437303
 20
93.0432454909048
 30
0.0
 11
-53.94395123143358
 21
93.0432454909048
 31
0.0
  0
LINE
  5
C8
330
1F
100
AcDbEntity
  8
0
  6
Continuous
 62
     7
100
AcDbLine
 10
-71.7939516129033
 20
107.543245967742
 30
0.0
 11
-55.79395161290331
 21
107.543245967742
 31
0.0
  0
LINE
  5
C9
330
1F
100
AcDbEntity
  8
0
  6
Continuous
 62
     2
100
AcDbLine
 10
-64.29395167250794
 20
79.04324596774195
 30
0.0
 11
-69.15643749852342
 21
79.04324596774195
 31
0.0
  0
LINE
  5
CA
330
1F
100
AcDbEntity
  8
0
  6
Continuous
 62
     7
100
AcDbLine
 10
-64.29395167255015
 20
79.18922111899256
 30
0.0
 11
-64.1492053689496
 21
76.64841717135523
 31
0.0
  0
LINE
  5
CB
330
1F
100
AcDbEntity
  8
0
  6
Continuous
 62
     7
100
AcDbLine
 10
-64.1492053689496
 20
76.64841717135523
 30
0.0
 11
-64.00288928766412
 21
74.08005970370387
 31
0.0
  0
LINE
  5
CC
330
1F
100
AcDbEntity
  8
0
  6
Continuous
 62
     2
100
AcDbLine
 10
-69.64763556142015
 20
79.0443999136648
 30
0.0
 11
-69.65396462102098
 21
79.11516826998805
 31
0.0
  0
LINE
  5
CD
330
1F
100
AcDbEntity
  8
0
  6
Continuous
 62
     2
100
AcDbLine
 10
-69.65643749852342
 20
79.04324596774195
 30
0.0
 11
-69.64763556142015
 21
79.0443999136648
 31
0.0
  0
LINE
  5
CE
330
1F
100
AcDbEntity
  8
0
  6
Continuous
 62
     7
100
AcDbLine
 10
-68.85444174428147
 20
72.11533611666773
 30
0.0
 11
-69.65396462102098
 21
79.11516826998805
 31
0.0
  0
LINE
  5
CF
330
1F
100
AcDbEntity
  8
0
  6
Continuous
 62
     7
100
AcDbLine
 10
-68.75321303029222
 20
72.11533611666773
 30
0.0
 11
-68.95358858723802
 21
75.61525219332789
 31
0.0
  0
LINE
  5
D0
330
1F
100
AcDbEntity
  8
0
  6
Continuous
 62
     7
100
AcDbLine
 10
-68.95358858723802
 20
75.61525219332789
 30
0.0
 11
-69.14984695474396
 21
79.04324596774195
 31
0.0
  0
LINE
  5
D1
330
1F
100
AcDbEntity
  8
0
  6
Continuous
 62
     7
100
AcDbLine
 10
-68.85444174428147
 20
72.11533611666773
 30
0.0
 11
-69.48718844075364
 21
72.04324596774195
 31
0.0
  0
LINE
  5
D2
330
1F
100
AcDbEntity
  8
0
  6
Continuous
 62
     7
100
AcDbLine
 10
-69.48718844075364
 20
72.04324596774195
 30
0.0
 11
-68.85444174428147
 21
72.11533611666773
 31
0.0
  0
LINE
  5
D3
330
1F
100
AcDbEntity
  8
0
  6
Continuous
 62
     7
100
AcDbLine
 10
-68.75387125073718
 20
72.12683308738129
 30
0.0
 11
-68.85444174428147
 21
72.11533611666773
 31
0.0
  0
LINE
  5
D4
330
1F
100
AcDbEntity
  8
0
  6
Continuous
 62
     7
100
AcDbLine
 10
-64.29395152349633
 20
79.11516826998805
 30
0.0
 11
-63.89518027473849
 21
72.11533611666773
 31
0.0
  0
LINE
  5
D5
330
1F
100
AcDbEntity
  8
0
  6
Continuous
 62
     7
100
AcDbLine
 10
-64.00288928766412
 20
74.08005970370387
 30
0.0
 11
-63.92119523604077
 21
72.61710613619898
 31
0.0
  0
LINE
  5
D6
330
1F
100
AcDbEntity
  8
0
  6
Continuous
 62
     7
100
AcDbLine
 10
-63.92119523604077
 20
72.61710613619898
 30
0.0
 11
-64.00288928766412
 21
74.08005970370387
 31
0.0
  0
LINE
  5
D7
330
1F
100
AcDbEntity
  8
0
  6
Continuous
 62
     7
100
AcDbLine
 10
-63.89658572991056
 20
72.16467541110133
 30
0.0
 11
-63.92119523604077
 21
72.61710613619898
 31
0.0
  0
LINE
  5
D8
330
1F
100
AcDbEntity
  8
0
  6
Continuous
 62
     7
100
AcDbLine
 10
-63.89658572991056
 20
72.16467541110133
 30
0.0
 11
-63.89518027473849
 21
72.11533611666773
 31
0.0
  0
LINE
  5
D9
330
1F
100
AcDbEntity
  8
0
  6
Continuous
 62
     2
100
AcDbLine
 10
-70.28703199933568
 20
79.04324596774195
 30
0.0
 11
-70.2939516129033
 21
79.04324596774195
 31
0.0
  0
LINE
  5
DA
330
1F
100
AcDbEntity
  8
0
  6
Continuous
 62
     2
100
AcDbLine
 10
-70.2939516129033
 20
79.04324596774195
 30
0.0
 11
-69.65643749852342
 21
79.04324596774195
 31
0.0
  0
LINE
  5
DB
330
1F
100
AcDbEntity
  8
0
  6
Continuous
 62
     2
100
AcDbLine
 10
-70.28712092061204
 20
79.04402416598414
 30
0.0
 11
-69.76268969197434
 21
79.04433506381129
 31
0.0
  0
LINE
  5
DC
330
1F
100
AcDbEntity
  8
0
  6
Continuous
 62
     2
100
AcDbLine
 10
-69.15643749550549
 20
79.14341982314859
 30
0.0
 11
-69.65396462102098
 21
79.11516826998805
 31
0.0
  0
LINE
  5
DD
330
1F
100
AcDbEntity
  8
0
  6
Continuous
 62
     7
100
AcDbLine
 10
-57.29395161290331
 20
90.5432454909048
 30
0.0
 11
-57.39270077366991
 21
90.5432454909048
 31
0.0
  0
LINE
  5
DE
330
1F
100
AcDbEntity
  8
0
  6
Continuous
 62
     7
100
AcDbLine
 10
-69.65643749852342
 20
86.54324644457911
 30
0.0
 11
-69.65643749852342
 21
79.04324596774195
 31
0.0
  0
LINE
  5
DF
330
1F
100
AcDbEntity
  8
0
  6
Continuous
 62
     7
100
AcDbLine
 10
-69.15643749852342
 20
86.54324644457911
 30
0.0
 11
-69.15643749852342
 21
79.04324596774195
 31
0.0
  0
LINE
  5
E0
330
1F
100
AcDbEntity
  8
0
  6
Continuous
 62
     7
100
AcDbLine
 10
-64.29395167250794
 20
86.54324644457911
 30
0.0
 11
-64.29395167250794
 21
79.04324596774195
 31
0.0
  0
LINE
  5
E1
330
1F
100
AcDbEntity
  8
0
  6
Continuous
 62
     7
100
AcDbLine
 10
-69.15643749852342
 20
86.54324644457911
 30
0.0
 11
-69.65643749852342
 21
86.54324644457911
 31
0.0
  0
LINE
  5
E2
330
1F
100
AcDbEntity
  8
0
  6
Continuous
 62
     7
100
AcDbLine
 10
-63.29395161290331
 20
86.54324644457911
 30
0.0
 11
-64.29395167250794
 21
86.54324644457911
 31
0.0
  0
LINE
  5
E3
330
1F
100
AcDbEntity
  8
0
  6
Continuous
 62
     2
100
AcDbLine
 10
-58.43146572728318
 20
79.04324596774195
 30
0.0
 11
-63.29395161290331
 21
79.04324596774195
 31
0.0
  0
LINE
  5
E4
330
1F
100
AcDbEntity
  8
0
  6
Continuous
 62
     2
100
AcDbLine
 10
-62.95165882725878
 20
79.04433506381129
 30
0.0
 11
-58.66750631947679
 21
79.04433506381129
 31
0.0
  0
LINE
  5
E5
330
1F
100
AcDbEntity
  8
0
  6
Continuous
 62
     7
100
AcDbLine
 10
-63.2939516128826
 20
79.18921800225657
 30
0.0
 11
-63.438697856857
 21
76.64841717135523
 31
0.0
  0
LINE
  5
E6
330
1F
100
AcDbEntity
  8
0
  6
Continuous
 62
     7
100
AcDbLine
 10
-63.438697856857
 20
76.64841717135523
 30
0.0
 11
-63.58501371462506
 21
74.08005970370387
 31
0.0
  0
LINE
  5
E7
330
1F
100
AcDbEntity
  8
0
  6
Continuous
 62
     7
100
AcDbLine
 10
-63.29395161294158
 20
79.18922007131
 30
0.0
 11
-63.438697856857
 21
76.64841717135523
 31
0.0
  0
LINE
  5
E8
330
1F
100
AcDbEntity
  8
0
  6
Continuous
 62
     7
100
AcDbLine
 10
-63.438697856857
 20
76.64841717135523
 30
0.0
 11
-63.58501371462506
 21
74.08005970370387
 31
0.0
  0
LINE
  5
E9
330
1F
100
AcDbEntity
  8
0
  6
Continuous
 62
     2
100
AcDbLine
 10
-57.93393860478562
 20
79.11516826998805
 30
0.0
 11
-57.94026766438645
 21
79.0443999136648
 31
0.0
  0
LINE
  5
EA
330
1F
100
AcDbEntity
  8
0
  6
Continuous
 62
     2
100
AcDbLine
 10
-57.93146572728318
 20
79.04324596774195
 30
0.0
 11
-57.94026766438645
 21
79.0443999136648
 31
0.0
  0
LINE
  5
EB
330
1F
100
AcDbEntity
  8
0
  6
Continuous
 62
     7
100
AcDbLine
 10
-63.29395149369402
 20
79.11516826998805
 30
0.0
 11
-63.69272286166115
 21
72.11533611666773
 31
0.0
  0
LINE
  5
EC
330
1F
100
AcDbEntity
  8
0
  6
Continuous
 62
     7
100
AcDbLine
 10
-63.58501371462506
 20
74.08005970370387
 30
0.0
 11
-63.66670798976583
 21
72.61710613619898
 31
0.0
  0
LINE
  5
ED
330
1F
100
AcDbEntity
  8
0
  6
Continuous
 62
     7
100
AcDbLine
 10
-63.66670798976583
 20
72.61710613619898
 30
0.0
 11
-63.58501371462506
 21
74.08005970370387
 31
0.0
  0
LINE
  5
EE
330
1F
100
AcDbEntity
  8
0
  6
Continuous
 62
     7
100
AcDbLine
 10
-63.66670798976583
 20
72.61710613619898
 30
0.0
 11
-63.69131754059954
 21
72.16467541110133
 31
0.0
  0
LINE
  5
EF
330
1F
100
AcDbEntity
  8
0
  6
Continuous
 62
     7
100
AcDbLine
 10
-63.69131754059954
 20
72.16467541110133
 30
0.0
 11
-63.66670798976583
 21
72.61710613619898
 31
0.0
  0
LINE
  5
F0
330
1F
100
AcDbEntity
  8
0
  6
Continuous
 62
     7
100
AcDbLine
 10
-63.69272286166115
 20
72.11533611666773
 30
0.0
 11
-63.69131754059954
 21
72.16467541110133
 31
0.0
  0
LINE
  5
F1
330
1F
100
AcDbEntity
  8
0
  6
Continuous
 62
     7
100
AcDbLine
 10
-58.83469019551438
 20
72.11533611666773
 30
0.0
 11
-58.63431463856858
 21
75.61525219332789
 31
0.0
  0
LINE
  5
F2
330
1F
100
AcDbEntity
  8
0
  6
Continuous
 62
     7
100
AcDbLine
 10
-58.63431463856858
 20
75.61525219332789
 30
0.0
 11
-58.4380562764264
 21
79.04324596774195
 31
0.0
  0
LINE
  5
F3
330
1F
100
AcDbEntity
  8
0
  6
Continuous
 62
     7
100
AcDbLine
 10
-58.73346148152513
 20
72.11533611666773
 30
0.0
 11
-57.93393860478562
 21
79.11516826998805
 31
0.0
  0
LINE
  5
F4
330
1F
100
AcDbEntity
  8
0
  6
Continuous
 62
     7
100
AcDbLine
 10
-58.73346148152513
 20
72.11533611666773
 30
0.0
 11
-58.10071478505297
 21
72.04324596774195
 31
0.0
  0
LINE
  5
F5
330
1F
100
AcDbEntity
  8
0
  6
Continuous
 62
     7
100
AcDbLine
 10
-58.10071478505297
 20
72.04324596774195
 30
0.0
 11
-58.73346148152513
 21
72.11533611666773
 31
0.0
  0
LINE
  5
F6
330
1F
100
AcDbEntity
  8
0
  6
Continuous
 62
     7
100
AcDbLine
 10
-58.73346148152513
 20
72.11533611666773
 30
0.0
 11
-58.83403197862783
 21
72.12683306238405
 31
0.0
  0
LINE
  5
F7
330
1F
100
AcDbEntity
  8
0
  6
Continuous
 62
     2
100
AcDbLine
 10
-57.30087122647093
 20
79.04324596774195
 30
0.0
 11
-57.29395161290331
 21
79.04324596774195
 31
0.0
  0
LINE
  5
F8
330
1F
100
AcDbEntity
  8
0
  6
Continuous
 62
     2
100
AcDbLine
 10
-57.29395161290331
 20
79.04324596774195
 30
0.0
 11
-57.93146572728318
 21
79.04324596774195
 31
0.0
  0
LINE
  5
F9
330
1F
100
AcDbEntity
  8
0
  6
Continuous
 62
     2
100
AcDbLine
 10
-57.82521353383225
 20
79.04433506381129
 30
0.0
 11
-57.30078230519457
 21
79.04402416598414
 31
0.0
  0
LINE
  5
FA
330
1F
100
AcDbEntity
  8
0
  6
Continuous
 62
     2
100
AcDbLine
 10
-57.93393860478562
 20
79.11516826998805
 30
0.0
 11
-58.43146573030111
 21
79.14341982314859
 31
0.0
  0
LINE
  5
FB
330
1F
100
AcDbEntity
  8
0
  6
Continuous
 62
     7
100
AcDbLine
 10
-63.29395161290331
 20
86.54324644457911
 30
0.0
 11
-63.29395161290331
 21
79.04324596774195
 31
0.0
  0
LINE
  5
FC
330
1F
100
AcDbEntity
  8
0
  6
Continuous
 62
     7
100
AcDbLine
 10
-58.43146572728318
 20
86.54324644457911
 30
0.0
 11
-58.43146572728318
 21
79.04324596774195
 31
0.0
  0
LINE
  5
FD
330
1F
100
AcDbEntity
  8
0
  6
Continuous
 62
     7
100
AcDbLine
 10
-57.93146572728318
 20
86.54324644457911
 30
0.0
 11
-57.93146572728318
 21
79.04324596774195
 31
0.0
  0
LINE
  5
FE
330
1F
100
AcDbEntity
  8
0
  6
Continuous
 62
     7
100
AcDbLine
 10
-57.93146572728318
 20
86.54324644457911
 30
0.0
 11
-58.43146572728318
 21
86.54324644457911
 31
0.0
  0
LINE
  5
FF
330
1F
100
AcDbEntity
  8
0
  6
Continuous
 62
     7
100
AcDbLine
 10
-69.89395151753587
 20
106.446280177947
 30
0.0
 11
-57.69395170827074
 21
106.446280177947
 31
0.0
  0
LINE
  5
100
330
1F
100
AcDbEntity
  8
0
  6
Continuous
 62
     7
100
AcDbLine
 10
-73.7939516129033
 20
93.19324606310938
 30
0.0
 11
-53.79395161290331
 21
93.19324606310938
 31
0.0
  0
LINE
  5
101
330
1F
100
AcDbEntity
  8
0
  6
Continuous
 62
     7
100
AcDbLine
 10
-57.69395170827074
 20
95.0432454909048
 30
0.0
 11
-57.78662405629319
 21
95.0432454909048
 31
0.0
  0
LINE
  5
102
330
1F
100
AcDbEntity
  8
0
  6
Continuous
 62
     7
100
AcDbLine
 10
-70.4903479637639
 20
94.0432454909048
 30
0.0
 11
-70.68390904088182
 21
94.05843752276515
 31
0.0
  0
LINE
  5
103
330
1F
100
AcDbEntity
  8
0
  6
Continuous
 62
     7
100
AcDbLine
 10
-70.68390904088182
 20
94.05843752276515
 30
0.0
 11
-70.37728939671678
 21
94.1522039736471
 31
0.0
  0
LINE
  5
104
330
1F
100
AcDbEntity
  8
0
  6
Continuous
 62
     7
100
AcDbLine
 10
-70.37728939671678
 20
94.1522039736471
 30
0.0
 11
-70.35927115101975
 21
94.1772205198965
 31
0.0
  0
LINE
  5
105
330
1F
100
AcDbEntity
  8
0
  6
Continuous
 62
     7
100
AcDbLine
 10
-70.35927115101975
 20
94.1772205198965
 30
0.0
 11
-70.1117096962468
 21
94.37270730387782
 31
0.0
  0
LINE
  5
106
330
1F
100
AcDbEntity
  8
0
  6
Continuous
 62
     7
100
AcDbLine
 10
-70.1117096962468
 20
94.37270730387782
 30
0.0
 11
-70.09462509770555
 21
94.4004585112295
 31
0.0
  0
LINE
  5
107
330
1F
100
AcDbEntity
  8
0
  6
Continuous
 62
     7
100
AcDbLine
 10
-70.09462509770555
 20
94.4004585112295
 30
0.0
 11
-69.93261061330003
 21
94.67052906405543
 31
0.0
  0
LINE
  5
108
330
1F
100
AcDbEntity
  8
0
  6
Continuous
 62
     7
100
AcDbLine
 10
-69.93261061330003
 20
94.67052906405543
 30
0.0
 11
-69.92188940663499
 21
94.70122545611476
 31
0.0
  0
LINE
  5
109
330
1F
100
AcDbEntity
  8
0
  6
Continuous
 62
     7
100
AcDbLine
 10
-69.92188940663499
 20
94.70122545611476
 30
0.0
 11
-69.86530075688523
 21
95.01254790675257
 31
0.0
  0
LINE
  5
10A
330
1F
100
AcDbEntity
  8
0
  6
Continuous
 62
     7
100
AcDbLine
 10
-56.77797661442919
 20
94.0432454909048
 30
0.0
 11
-56.98230324406786
 21
94.05843752276515
 31
0.0
  0
LINE
  5
10B
330
1F
100
AcDbEntity
  8
0
  6
Continuous
 62
     7
100
AcDbLine
 10
-56.98230324406786
 20
94.05843752276515
 30
0.0
 11
-57.02875576634568
 21
94.08211916339015
 31
0.0
  0
LINE
  5
10C
330
1F
100
AcDbEntity
  8
0
  6
Continuous
 62
     7
100
AcDbLine
 10
-57.02875576634568
 20
94.08211916339015
 30
0.0
 11
-57.30325041432543
 21
94.1772205198965
 31
0.0
  0
LINE
  5
10D
330
1F
100
AcDbEntity
  8
0
  6
Continuous
 62
     7
100
AcDbLine
 10
-57.30325041432543
 20
94.1772205198965
 30
0.0
 11
-57.37872229237718
 21
94.24838846575831
 31
0.0
  0
LINE
  5
10E
330
1F
100
AcDbEntity
  8
0
  6
Continuous
 62
     7
100
AcDbLine
 10
-57.37872229237718
 20
94.24838846575831
 30
0.0
 11
-57.56488953252001
 21
94.4004585112295
 31
0.0
  0
LINE
  5
10F
330
1F
100
AcDbEntity
  8
0
  6
Continuous
 62
     7
100
AcDbLine
 10
-57.56488953252001
 20
94.4004585112295
 30
0.0
 11
-57.62397251744432
 21
94.51140850436305
 31
0.0
  0
LINE
  5
110
330
1F
100
AcDbEntity
  8
0
  6
Continuous
 62
     7
100
AcDbLine
 10
-57.62397251744432
 20
94.51140850436305
 30
0.0
 11
-57.73566160817307
 21
94.70122545611476
 31
0.0
  0
LINE
  5
111
330
1F
100
AcDbEntity
  8
0
  6
Continuous
 62
     7
100
AcDbLine
 10
-57.73566160817307
 20
94.70122545611476
 30
0.0
 11
-57.75832710881394
 21
94.83890407931422
 31
0.0
  0
LINE
  5
112
330
1F
100
AcDbEntity
  8
0
  6
Continuous
 62
     7
100
AcDbLine
 10
-57.75832710881394
 20
94.83890407931422
 30
0.0
 11
-57.74286852498216
 21
94.85635703456019
 31
0.0
  0
LINE
  5
113
330
1F
100
AcDbEntity
  8
0
  6
Continuous
 62
     7
100
AcDbLine
 10
-57.74286852498216
 20
94.85635703456019
 30
0.0
 11
-57.69395170827074
 21
95.0432454909048
 31
0.0
  0
LINE
  5
114
330
1F
100
AcDbEntity
  8
0
  6
Continuous
 62
     7
100
AcDbLine
 10
-69.86530075688523
 20
95.01254790675257
 30
0.0
 11
-69.89395151753587
 21
95.0432454909048
 31
0.0
  0
LINE
  5
115
330
1F
100
AcDbEntity
  8
0
  6
Continuous
 62
     7
100
AcDbLine
 10
-69.89395151753587
 20
106.446280177947
 30
0.0
 11
-69.89395151753587
 21
95.0432454909048
 31
0.0
  0
LINE
  5
116
330
1F
100
AcDbEntity
  8
0
  6
Continuous
 62
     7
100
AcDbLine
 10
-57.69395170827074
 20
106.446280177947
 30
0.0
 11
-57.69395170827074
 21
95.0432454909048
 31
0.0
  0
LINE
  5
117
330
1F
100
AcDbEntity
  8
0
  6
Continuous
 62
     7
100
AcDbLine
 10
-57.30078230519457
 20
79.04402416598414
 30
0.0
 11
-58.10071478505297
 21
72.04324596774195
 31
0.0
  0
LINE
  5
118
330
1F
100
AcDbEntity
  8
0
  6
Continuous
 62
     7
100
AcDbLine
 10
-70.2939516129033
 20
90.5432454909048
 30
0.0
 11
-70.2939516129033
 21
79.04324596774195
 31
0.0
  0
LINE
  5
119
330
1F
100
AcDbEntity
  8
0
  6
Continuous
 62
     7
100
AcDbLine
 10
-57.29395161290331
 20
90.5432454909048
 30
0.0
 11
-57.29395161290331
 21
79.04324596774195
 31
0.0
  0
LINE
  5
11A
330
1F
100
AcDbEntity
  8
0
  6
Continuous
 62
     7
100
AcDbLine
 10
-70.28712092061204
 20
79.04402416598414
 30
0.0
 11
-69.48718844075364
 21
72.04324596774195
 31
0.0
  0
LINE
  5
11B
330
1F
100
AcDbEntity
  8
0
  6
Continuous
 62
     7
100
AcDbLine
 10
-57.29395161290331
 20
90.5432454909048
 30
0.0
 11
-57.37055359502001
 21
90.67083432924365
 31
0.0
  0
LINE
  5
11C
330
1F
100
AcDbEntity
  8
0
  6
Continuous
 62
     7
100
AcDbLine
 10
-57.37055359502001
 20
90.67083432924365
 30
0.0
 11
-57.29019222874803
 21
90.8646394575796
 31
0.0
  0
LINE
  5
11D
330
1F
100
AcDbEntity
  8
0
  6
Continuous
 62
     7
100
AcDbLine
 10
-57.29019222874803
 20
90.8646394575796
 30
0.0
 11
-56.98736916203661
 21
91.01810542520498
 31
0.0
  0
LINE
  5
11E
330
1F
100
AcDbEntity
  8
0
  6
Continuous
 62
     7
100
AcDbLine
 10
-56.98736916203661
 20
91.01810542520498
 30
0.0
 11
-56.99906216283006
 21
91.03564947497462
 31
0.0
  0
LINE
  5
11F
330
1F
100
AcDbEntity
  8
0
  6
Continuous
 62
     7
100
AcDbLine
 10
-70.73406563420457
 20
91.04324549081475
 30
0.0
 11
-70.58884106297654
 21
91.03564947497462
 31
0.0
  0
LINE
  5
120
330
1F
100
AcDbEntity
  8
0
  6
Continuous
 62
     7
100
AcDbLine
 10
-70.58884106297654
 20
91.03564947497462
 30
0.0
 11
-70.60053406377
 21
91.01810542520498
 31
0.0
  0
LINE
  5
121
330
1F
100
AcDbEntity
  8
0
  6
Continuous
 62
     7
100
AcDbLine
 10
-70.60053406377
 20
91.01810542520498
 30
0.0
 11
-70.29771099705857
 21
90.8646394575796
 31
0.0
  0
LINE
  5
122
330
1F
100
AcDbEntity
  8
0
  6
Continuous
 62
     7
100
AcDbLine
 10
-70.29771099705857
 20
90.8646394575796
 30
0.0
 11
-70.2173496307866
 21
90.67083432924365
 31
0.0
  0
LINE
  5
123
330
1F
100
AcDbEntity
  8
0
  6
Continuous
 62
     7
100
AcDbLine
 10
-70.2173496307866
 20
90.67083432924365
 30
0.0
 11
-70.2939516129033
 21
90.5432454909048
 31
0.0
  0
LINE
  5
124
330
1F
100
AcDbEntity
  8
0
  6
Continuous
 62
     7
100
AcDbLine
 10
-56.99906216283006
 20
91.03564947497462
 30
0.0
 11
-56.85383759160204
 21
91.04324549081475
 31
0.0
  0
LINE
  5
125
330
1F
100
AcDbEntity
  8
0
  6
Continuous
 62
     7
100
AcDbLine
 10
-57.69395170827074
 20
106.446280177947
 30
0.0
 11
-55.79395161290331
 21
107.543245967742
 31
0.0
  0
LINE
  5
126
330
1F
100
AcDbEntity
  8
0
  6
Continuous
 62
     7
100
AcDbLine
 10
-71.7939516129033
 20
107.543245967742
 30
0.0
 11
-69.89395151753587
 21
106.446280177947
 31
0.0
  0
LINE
  5
127
330
1F
100
AcDbEntity
  8
0
  6
Continuous
 62
     7
100
AcDbLine
 10
-55.79395161290331
 20
110.043245967742
 30
0.0
 11
-55.79395161290331
 21
107.543245967742
 31
0.0
  0
LINE
  5
128
330
1F
100
AcDbEntity
  8
0
  6
Continuous
 62
     7
100
AcDbLine
 10
-71.7939516129033
 20
110.043245967742
 30
0.0
 11
-71.7939516129033
 21
107.543245967742
 31
0.0
  0
LINE
  5
129
330
1F
100
AcDbEntity
  8
0
  6
Continuous
 62
     7
100
AcDbLine
 10
-73.64395199437303
 20
93.0432454909048
 30
0.0
 11
-73.7939516129033
 21
92.89324587237452
 31
0.0
  0
LINE
  5
12A
330
1F
100
AcDbEntity
  8
0
  6
Continuous
 62
     7
100
AcDbLine
 10
-53.79395161290331
 20
92.89324587237452
 30
0.0
 11
-53.94395123143358
 21
93.0432454909048
 31
0.0
  0
LINE
  5
12B
330
1F
100
AcDbEntity
  8
0
  6
Continuous
 62
     7
100
AcDbLine
 10
-53.94395123143358
 20
93.0432454909048
 30
0.0
 11
-53.79395161290331
 21
93.19324606310938
 31
0.0
  0
LINE
  5
12C
330
1F
100
AcDbEntity
  8
0
  6
Continuous
 62
     7
100
AcDbLine
 10
-73.7939516129033
 20
93.19324606310938
 30
0.0
 11
-73.64395199437303
 21
93.0432454909048
 31
0.0
  0
LINE
  5
12D
330
1F
100
AcDbEntity
  8
0
  6
Continuous
 62
     7
100
AcDbLine
 10
-53.79395161290331
 20
94.0432454909048
 30
0.0
 11
-53.79395161290331
 21
93.19324606310938
 31
0.0
  0
LINE
  5
12E
330
1F
100
AcDbEntity
  8
0
  6
Continuous
 62
     7
100
AcDbLine
 10
-73.7939516129033
 20
93.19324606310938
 30
0.0
 11
-73.7939516129033
 21
94.0432454909048
 31
0.0
  0
LINE
  5
12F
330
1F
100
AcDbEntity
  8
0
  6
Continuous
 62
     7
100
AcDbLine
 10
-53.79395161290331
 20
91.04324549081475
 30
0.0
 11
-53.79395161290331
 21
92.89324587237452
 31
0.0
  0
LINE
  5
130
330
1F
100
AcDbEntity
  8
0
  6
Continuous
 62
     7
100
AcDbLine
 10
-73.7939516129033
 20
91.04324549081475
 30
0.0
 11
-73.7939516129033
 21
92.89324587237452
 31
0.0
  0
LINE
  5
131
330
1F
100
AcDbEntity
  8
0
  6
Continuous
 62
     7
100
AcDbLine
 10
-13.94544210343391
 20
135.5586668989755
 30
0.0
 11
-9.87957811161125
 21
133.5257349030642
 31
0.0
  0
LINE
  5
132
330
1F
100
AcDbEntity
  8
0
  6
Continuous
 62
     7
100
AcDbLine
 10
-17.81173096160519
 20
128.2680309208745
 30
0.0
 11
-18.46580473420275
 21
128.5950678071733
 31
0.0
  0
LINE
  5
133
330
1F
100
AcDbEntity
  8
0
  6
Continuous
 62
     7
100
AcDbLine
 10
-15.59631827495323
 20
132.0284544690063
 30
0.0
 11
-13.00509132644022
 21
130.7328409947498
 31
0.0
  0
LINE
  5
134
330
1F
100
AcDbEntity
  8
0
  6
Continuous
 62
     7
100
AcDbLine
 10
-15.88059786208581
 20
129.4060876591739
 30
0.0
 11
-13.22894743263735
 21
128.0802624444507
 31
0.0
  0
LINE
  5
135
330
1F
100
AcDbEntity
  8
0
  6
Continuous
 62
     7
100
AcDbLine
 10
-16.85233047418362
 20
129.7448901574761
 30
0.0
 11
-12.78646648236099
 21
127.7119581615648
 31
0.0
  0
LINE
  5
136
330
1F
100
AcDbEntity
  8
0
  6
Continuous
 62
     7
100
AcDbLine
 10
-22.38545951922863
 20
132.7350614777485
 30
0.0
 11
-20.17040526582291
 21
131.6275343510457
 31
0.0
  0
LINE
  5
137
330
1F
100
AcDbEntity
  8
0
  6
Continuous
 62
     7
100
AcDbLine
 10
-19.76527066263573
 20
131.3524698177955
 30
0.0
 11
-19.76527066263573
 21
131.2994368092066
 31
0.0
  0
LINE
  5
138
330
1F
100
AcDbEntity
  8
0
  6
Continuous
 62
     7
100
AcDbLine
 10
-15.88059786208581
 20
129.4060876591739
 30
0.0
 11
-15.76448133856898
 21
129.5462527021189
 31
0.0
  0
LINE
  5
139
330
1F
100
AcDbEntity
  8
0
  6
Continuous
 62
     7
100
AcDbLine
 10
-16.05737455738245
 20
129.6926993115256
 30
0.0
 11
-13.40572412793292
 21
128.3668740968008
 31
0.0
  0
LINE
  5
13A
330
1F
100
AcDbEntity
  8
0
  6
Continuous
 62
     7
100
AcDbLine
 10
-18.5718707513807
 20
128.6481008157622
 30
0.0
 11
-18.87239113338502
 21
128.7983610067644
 31
0.0
  0
LINE
  5
13B
330
1F
100
AcDbEntity
  8
0
  6
Continuous
 62
     7
100
AcDbLine
 10
-16.05737455738242
 20
132.1239423516061
 30
0.0
 11
-15.59631827495323
 21
132.0284544690063
 31
0.0
  0
LINE
  5
13C
330
1F
100
AcDbEntity
  8
0
  6
Continuous
 62
     7
100
AcDbLine
 10
-16.05737455738242
 20
132.1239423516061
 30
0.0
 11
-13.4057241279329
 21
130.7981171368813
 31
0.0
  0
LINE
  5
13D
330
1F
100
AcDbEntity
  8
0
  6
Continuous
 62
     7
100
AcDbLine
 10
-15.88059786208581
 20
132.5873306992544
 30
0.0
 11
-13.22894743263736
 21
131.261505484527
 31
0.0
  0
LINE
  5
13E
330
1F
100
AcDbEntity
  8
0
  6
Continuous
 62
     7
100
AcDbLine
 10
-13.80789603113904
 20
134.4857497441747
 30
0.0
 11
-13.80789603113905
 21
134.839303134768
 31
0.0
  0
LINE
  5
13F
330
1F
100
AcDbEntity
  8
0
  6
Continuous
 62
     7
100
AcDbLine
 10
-13.10895616183931
 20
130.7497681821108
 30
0.0
 11
-13.43027824717809
 21
130.8106503073977
 31
0.0
  0
LINE
  5
140
330
1F
100
AcDbEntity
  8
0
  6
Continuous
 62
     7
100
AcDbLine
 10
-11.1816741382213
 20
133.5249555755223
 30
0.0
 11
-11.19669682364945
 21
133.158325568533
 31
0.0
  0
LINE
  5
141
330
1F
100
AcDbEntity
  8
0
  6
Continuous
 62
     7
100
AcDbLine
 10
-13.33959500660561
 20
137.2123028308737
 30
0.0
 11
-13.99366877920317
 21
137.5393397171725
 31
0.0
  0
LINE
  5
142
330
1F
100
AcDbEntity
  8
0
  6
Continuous
 62
     7
100
AcDbLine
 10
-24.08203178737745
 20
132.5212153225105
 30
0.0
 11
-23.19814831089426
 21
132.079273584269
 31
0.0
  0
LINE
  5
143
330
1F
100
AcDbEntity
  8
0
  6
Continuous
 62
     7
100
AcDbLine
 10
-19.65745658667888
 20
138.191067342848
 30
0.0
 11
-17.44240233327317
 21
137.0835402161451
 31
0.0
  0
LINE
  5
144
330
1F
100
AcDbEntity
  8
0
  6
Continuous
 62
     7
100
AcDbLine
 10
-16.97926994476071
 20
136.9244712535456
 30
0.0
 11
-16.93684353788957
 21
136.9562910586989
 31
0.0
  0
LINE
  5
145
330
1F
100
AcDbEntity
  8
0
  6
Continuous
 62
     7
100
AcDbLine
 10
-14.09973479638112
 20
137.5923727257614
 30
0.0
 11
-14.40025517838544
 21
137.7426329167636
 31
0.0
  0
LINE
  5
146
330
1F
100
AcDbEntity
  8
0
  6
Continuous
 62
     7
100
AcDbLine
 10
-13.80789603113905
 20
134.839303134768
 30
0.0
 11
-11.15624560169151
 21
133.5134779200423
 31
0.0
  0
LINE
  5
147
330
1F
100
AcDbEntity
  8
0
  6
Continuous
 62
     7
100
AcDbLine
 10
-10.00585973093557
 20
126.7811094529703
 30
0.0
 11
-12.62175443297537
 21
127.6477814220965
 31
0.0
  0
LINE
  5
148
330
1F
100
AcDbEntity
  8
0
  6
Continuous
 62
     7
100
AcDbLine
 10
-13.12675708102621
 20
128.2600521698142
 30
0.0
 11
-13.25350155187963
 21
128.0940322277518
 31
0.0
  0
LINE
  5
149
330
1F
100
AcDbEntity
  8
0
  6
Continuous
 62
     7
100
AcDbLine
 10
-7.41036130916891
 20
131.8337030162126
 30
0.0
 11
-9.73663518537898
 21
133.4368535623819
 31
0.0
  0
LINE
  5
14A
330
1F
100
AcDbEntity
  8
0
  6
Continuous
 62
     7
100
AcDbLine
 10
-14.16144942173231
 20
134.6625264394714
 30
0.0
 11
-11.50979899228079
 21
133.3367012247477
 31
0.0
  0
LINE
  5
14B
330
1F
100
AcDbEntity
  8
0
  6
Continuous
 62
     7
100
AcDbLine
 10
-9.46340011515466
 20
129.9890829461149
 30
0.0
 11
-9.82341109575392
 21
130.0693095190306
 31
0.0
  0
LINE
  5
14C
330
1F
100
AcDbEntity
  8
0
  6
Continuous
 62
     7
100
AcDbLine
 10
-10.18387304734543
 20
130.349575523104
 30
0.0
 11
-9.45961550338581
 21
129.9874467511242
 31
0.0
  0
LINE
  5
14D
330
1F
100
AcDbEntity
  8
0
  6
Continuous
 62
     7
100
AcDbLine
 10
-9.97023832859418
 20
130.6594946004101
 30
0.0
 11
-9.78180022940509
 21
130.5652755508156
 31
0.0
  0
LINE
  5
14E
330
1F
100
AcDbEntity
  8
0
  6
Continuous
 62
     7
100
AcDbLine
 10
-10.24821494836177
 20
130.2467062149973
 30
0.0
 11
-9.95857692470175
 21
130.1018872031673
 31
0.0
  0
LINE
  5
14F
330
1F
100
AcDbEntity
  8
0
  6
Continuous
 62
     7
100
AcDbLine
 10
-20.50432302337778
 20
139.6766328505099
 30
0.0
 11
-19.6204395468946
 21
139.2346911122683
 31
0.0
  0
LINE
  5
150
330
1F
100
AcDbEntity
  8
1
  6
Continuous
 62
     7
100
AcDbLine
 10
-76.60000000000046
 20
56.43876067704495
 30
0.0
 11
-76.60000000000066
 21
37.63876067704476
 31
0.0
  0
LINE
  5
151
330
1F
100
AcDbEntity
  8
1
  6
Continuous
 62
     7
100
AcDbLine
 10
-17.59999999999933
 20
37.63876067704476
 30
0.0
 11
-76.60000000000066
 21
37.63876067704476
 31
0.0
  0
LINE
  5
152
330
1F
100
AcDbEntity
  8
1
  6
Continuous
 62
     7
100
AcDbLine
 10
-27.59999999999955
 20
47.23876067704492
 30
0.0
 11
-76.60000000000066
 21
47.23876067704492
 31
0.0
  0
LINE
  5
153
330
1F
100
AcDbEntity
  8
1
  6
Continuous
 62
     7
100
AcDbLine
 10
-76.60000000000058
 20
50.43876067704497
 30
0.0
 11
-17.59999999999936
 21
50.43876067704497
 31
0.0
  0
LINE
  5
154
330
1F
100
AcDbEntity
  8
1
  6
Continuous
 62
     7
100
AcDbLine
 10
-76.60000000000046
 20
56.43876067704495
 30
0.0
 11
-17.59999999999934
 21
56.43876067704494
 31
0.0
  0
LINE
  5
155
330
1F
100
AcDbEntity
  8
1
  6
Continuous
 62
     7
100
AcDbLine
 10
-63.60000000000046
 20
56.43876067704494
 30
0.0
 11
-63.60000000000046
 21
37.63876067704476
 31
0.0
  0
LINE
  5
156
330
1F
100
AcDbEntity
  8
1
  6
Continuous
 62
     7
100
AcDbLine
 10
-56.60000000000024
 20
56.43876067704494
 30
0.0
 11
-56.60000000000024
 21
37.63876067704476
 31
0.0
  0
LINE
  5
157
330
1F
100
AcDbEntity
  8
1
  6
Continuous
 62
     7
100
AcDbLine
 10
-47.6
 20
53.43876067704495
 30
0.0
 11
-47.6
 21
37.63876067704476
 31
0.0
  0
LINE
  5
158
330
1F
100
AcDbEntity
  8
1
  6
Continuous
 62
     7
100
AcDbLine
 10
-17.59999999999934
 20
56.43876067704494
 30
0.0
 11
-17.59999999999933
 21
37.63876067704476
 31
0.0
  0
LINE
  5
159
330
1F
100
AcDbEntity
  8
1
  6
Continuous
 62
     7
100
AcDbLine
 10
-38.59999999999978
 20
56.43876067704494
 30
0.0
 11
-38.59999999999978
 21
37.63876067704476
 31
0.0
  0
LINE
  5
15A
330
1F
100
AcDbEntity
  8
1
  6
Continuous
 62
     7
100
AcDbLine
 10
-94.5
 20
10.0
 30
0.0
 11
-94.5
 21
2.49999999999994
 31
0.0
  0
LINE
  5
15B
330
1F
100
AcDbEntity
  8
1
  6
Continuous
 62
     7
100
AcDbLine
 10
-24.5
 20
10.0
 30
0.0
 11
-24.5
 21
2.5
 31
0.0
  0
LINE
  5
15C
330
1F
100
AcDbEntity
  8
1
  6
Continuous
 62
     7
100
AcDbLine
 10
-15.82369931125731
 20
10.0
 30
0.0
 11
-15.82369931125731
 21
2.5
 31
0.0
  0
LINE
  5
15D
330
1F
100
AcDbEntity
  8
1
  6
Continuous
 62
     7
100
AcDbLine
 10
-79.5
 20
10.0
 30
0.0
 11
-79.5
 21
2.5
 31
0.0
  0
LINE
  5
15E
330
1F
100
AcDbEntity
  8
1
  6
Continuous
 62
     7
100
AcDbLine
 10
-94.5
 20
6.25
 30
0.0
 11
-79.5
 21
6.25
 31
0.0
  0
LINE
  5
15F
330
1F
100
AcDbEntity
  8
1
  6
Continuous
 62
     7
100
AcDbLine
 10
-105.0000000000001
 20
74.24999999999996
 30
0.0
 11
-97.50000000000006
 21
74.24999999999996
 31
0.0
  0
LINE
  5
160
330
1F
100
AcDbEntity
  8
1
  6
Continuous
 62
     7
100
AcDbLine
 10
0.0
 20
0.0
 30
0.0
 11
0.0
 21
148.5000000000001
 31
0.0
  0
LINE
  5
161
330
1F
100
AcDbEntity
  8
1
  6
Continuous
 62
     7
100
AcDbLine
 10
-105.0000000000001
 20
0.0
 30
0.0
 11
0.0
 21
0.0
 31
0.0
  0
LINE
  5
162
330
1F
100
AcDbEntity
  8
1
  6
Continuous
 62
     7
100
AcDbLine
 10
-105.0000000000001
 20
148.5000000000001
 30
0.0
 11
-105.0000000000001
 21
0.0
 31
0.0
  0
LINE
  5
163
330
1F
100
AcDbEntity
  8
1
  6
Continuous
 62
     7
100
AcDbLine
 10
0.0
 20
148.5000000000001
 30
0.0
 11
-105.0000000000001
 21
148.5000000000001
 31
0.0
  0
LINE
  5
164
330
1F
100
AcDbEntity
  8
1
  6
Continuous
 62
     7
100
AcDbLine
 10
-2.5
 20
2.49999999999994
 30
0.0
 11
-2.5
 21
146.0000000000001
 31
0.0
  0
LINE
  5
165
330
1F
100
AcDbEntity
  8
1
  6
Continuous
 62
     7
100
AcDbLine
 10
-2.5
 20
146.0000000000001
 30
0.0
 11
-94.5
 21
146.0000000000001
 31
0.0
  0
LINE
  5
166
330
1F
100
AcDbEntity
  8
1
  6
Continuous
 62
     7
100
AcDbLine
 10
-94.5
 20
146.0000000000001
 30
0.0
 11
-94.5
 21
2.49999999999994
 31
0.0
  0
LINE
  5
167
102
{ACAD_REACTORS
330
277
102
}
330
1F
100
AcDbEntity
  8
1
  6
Continuous
 62
     7
100
AcDbLine
 10
-7.99518298896197
 20
5.03874991991631
 30
0.0
 11
-7.99518298896197
 21
7.46125008008369
 31
0.0
  0
LINE
  5
168
102
{ACAD_REACTORS
330
274
102
}
330
1F
100
AcDbEntity
  8
1
  6
Continuous
 62
     7
100
AcDbLine
 10
-8.66184965562866
 20
6.25
 30
0.0
 11
-8.66184965562866
 21
7.11602540378442
 31
0.0
  0
LINE
  5
169
102
{ACAD_REACTORS
330
274
102
}
330
1F
100
AcDbEntity
  8
1
  6
Continuous
 62
     7
100
AcDbLine
 10
-8.66184965562866
 20
7.11602540378442
 30
0.0
 11
-9.08968087197997
 21
6.375
 31
0.0
  0
LINE
  5
16A
102
{ACAD_REACTORS
330
274
102
}
330
1F
100
AcDbEntity
  8
1
  6
Continuous
 62
     7
100
AcDbLine
 10
-9.2340184392774
 20
6.375
 30
0.0
 11
-9.66184965562866
 21
7.11602540378442
 31
0.0
  0
LINE
  5
16B
102
{ACAD_REACTORS
330
274
102
}
330
1F
100
AcDbEntity
  8
1
  6
Continuous
 62
     7
100
AcDbLine
 10
-9.66184965562866
 20
7.11602540378442
 30
0.0
 11
-9.66184965562866
 21
6.25
 31
0.0
  0
LINE
  5
16C
330
1F
100
AcDbEntity
  8
1
  6
Continuous
 62
     7
100
AcDbLine
 10
-13.37006729319944
 20
6.32218213217067
 30
0.0
 11
-9.16184965562866
 21
8.75
 31
0.0
  0
LINE
  5
16D
330
1F
100
AcDbEntity
  8
1
  6
Continuous
 62
     7
100
AcDbLine
 10
-9.16184965562866
 20
8.75
 30
0.0
 11
-4.95363201805793
 21
6.32218213217067
 31
0.0
  0
LINE
  5
16E
330
1F
100
AcDbEntity
  8
1
  6
Continuous
 62
     7
100
AcDbLine
 10
-4.95363201805793
 20
6.17781786782928
 30
0.0
 11
-9.16184965562866
 21
3.75
 31
0.0
  0
LINE
  5
16F
330
1F
100
AcDbEntity
  8
1
  6
Continuous
 62
     7
100
AcDbLine
 10
-9.16184965562866
 20
3.75
 30
0.0
 11
-13.37006729319944
 21
6.17781786782928
 31
0.0
  0
LINE
  5
170
102
{ACAD_REACTORS
330
274
102
}
330
1F
100
AcDbEntity
  8
1
  6
Continuous
 62
     7
100
AcDbLine
 10
-9.99518298896203
 20
6.25
 30
0.0
 11
-9.99518298896203
 21
7.86560865601728
 31
0.0
  0
LINE
  5
171
102
{ACAD_REACTORS
330
274
102
}
330
1F
100
AcDbEntity
  8
1
  6
Continuous
 62
     7
100
AcDbLine
 10
-9.7479661471503
 20
7.93185020913614
 30
0.0
 11
-9.16184965562866
 21
6.91666666666663
 31
0.0
  0
LINE
  5
172
102
{ACAD_REACTORS
330
274
102
}
330
1F
100
AcDbEntity
  8
1
  6
Continuous
 62
     7
100
AcDbLine
 10
-9.99518298896203
 20
6.25
 30
0.0
 11
-9.99518298896203
 21
5.42379253631645
 31
0.0
  0
LINE
  5
173
102
{ACAD_REACTORS
330
274
102
}
330
1F
100
AcDbEntity
  8
1
  6
Continuous
 62
     7
100
AcDbLine
 10
-9.66184965562866
 20
5.42379253631645
 30
0.0
 11
-9.66184965562866
 21
6.25
 31
0.0
  0
LINE
  5
174
102
{ACAD_REACTORS
330
274
102
}
330
1F
100
AcDbEntity
  8
1
  6
Continuous
 62
     7
100
AcDbLine
 10
-8.66184965562866
 20
6.25
 30
0.0
 11
-8.66184965562866
 21
4.6541345353009
 31
0.0
  0
LINE
  5
175
102
{ACAD_REACTORS
330
274
102
}
330
1F
100
AcDbEntity
  8
1
  6
Continuous
 62
     7
100
AcDbLine
 10
-8.32851632229534
 20
4.6541345353009
 30
0.0
 11
-8.32851632229534
 21
7.86560865601728
 31
0.0
  0
LINE
  5
176
102
{ACAD_REACTORS
330
274
102
}
330
1F
100
AcDbEntity
  8
1
  6
Continuous
 62
     7
100
AcDbLine
 10
-8.57573316410702
 20
7.93185020913614
 30
0.0
 11
-9.16184965562866
 21
6.91666666666663
 31
0.0
  0
LINE
  5
177
102
{ACAD_REACTORS
330
275
102
}
330
1F
100
AcDbEntity
  8
1
  6
Continuous
 62
     7
100
AcDbLine
 10
-10.66184965562866
 20
5.13501057401629
 30
0.0
 11
-10.66184965562866
 21
7.46125008008369
 31
0.0
  0
LINE
  5
178
102
{ACAD_REACTORS
330
275
102
}
330
1F
100
AcDbEntity
  8
1
  6
Continuous
 62
     7
100
AcDbLine
 10
-10.32851632229534
 20
7.46125008008369
 30
0.0
 11
-10.32851632229534
 21
5.13501057401635
 31
0.0
  0
LINE
  5
179
102
{ACAD_REACTORS
330
275
102
}
330
1F
100
AcDbEntity
  8
1
  6
Continuous
 62
     7
100
AcDbLine
 10
-10.32851632229534
 20
5.13501057401635
 30
0.0
 11
-9.24522924671374
 21
4.5100372611808
 31
0.0
  0
LINE
  5
17A
102
{ACAD_REACTORS
330
275
102
}
330
1F
100
AcDbEntity
  8
1
  6
Continuous
 62
     7
100
AcDbLine
 10
-9.41180339787695
 20
4.2213087324979
 30
0.0
 11
-10.49509047345851
 21
4.84628204533345
 31
0.0
  0
LINE
  5
17B
102
{ACAD_REACTORS
330
276
102
}
330
1F
100
AcDbEntity
  8
1
  6
Continuous
 62
     7
100
AcDbLine
 10
-10.99518298896203
 20
7.07663469546833
 30
0.0
 11
-10.99518298896203
 21
5.51962595863165
 31
0.0
  0
LINE
  5
17C
102
{ACAD_REACTORS
330
276
102
}
330
1F
100
AcDbEntity
  8
1
  6
Continuous
 62
     7
100
AcDbLine
 10
-10.99518298896203
 20
5.51962595863165
 30
0.0
 11
-10.99518298896203
 21
5.42336530453161
 31
0.0
  0
LINE
  5
17D
102
{ACAD_REACTORS
330
276
102
}
330
1F
100
AcDbEntity
  8
1
  6
Continuous
 62
     7
100
AcDbLine
 10
-11.32851632229534
 20
5.42336530453161
 30
0.0
 11
-11.32851632229534
 21
7.07663469546833
 31
0.0
  0
LINE
  5
17E
102
{ACAD_REACTORS
330
277
102
}
330
1F
100
AcDbEntity
  8
1
  6
Continuous
 62
     7
100
AcDbLine
 10
-7.74522924671373
 20
7.60561434442513
 30
0.0
 11
-7.07856258004711
 21
7.22099895980972
 31
0.0
  0
LINE
  5
17F
102
{ACAD_REACTORS
330
277
102
}
330
1F
100
AcDbEntity
  8
1
  6
Continuous
 62
     7
100
AcDbLine
 10
-7.24513673121027
 20
6.93227043112688
 30
0.0
 11
-7.66184965562865
 21
7.17268173367597
 31
0.0
  0
LINE
  5
180
102
{ACAD_REACTORS
330
277
102
}
330
1F
100
AcDbEntity
  8
1
  6
Continuous
 62
     7
100
AcDbLine
 10
-7.66184965562865
 20
7.17268173367597
 30
0.0
 11
-7.66184965562865
 21
6.41666666666663
 31
0.0
  0
LINE
  5
181
102
{ACAD_REACTORS
330
277
102
}
330
1F
100
AcDbEntity
  8
1
  6
Continuous
 62
     7
100
AcDbLine
 10
-7.66184965562865
 20
6.41666666666663
 30
0.0
 11
-7.16184965562865
 21
6.41666666666663
 31
0.0
  0
LINE
  5
182
102
{ACAD_REACTORS
330
277
102
}
330
1F
100
AcDbEntity
  8
1
  6
Continuous
 62
     7
100
AcDbLine
 10
-7.16184965562865
 20
6.08333333333332
 30
0.0
 11
-7.66184965562865
 21
6.08333333333332
 31
0.0
  0
LINE
  5
183
102
{ACAD_REACTORS
330
277
102
}
330
1F
100
AcDbEntity
  8
1
  6
Continuous
 62
     7
100
AcDbLine
 10
-7.66184965562865
 20
6.08333333333332
 30
0.0
 11
-7.66184965562865
 21
5.32731826632397
 31
0.0
  0
LINE
  5
184
102
{ACAD_REACTORS
330
277
102
}
330
1F
100
AcDbEntity
  8
1
  6
Continuous
 62
     7
100
AcDbLine
 10
-7.66184965562865
 20
5.32731826632397
 30
0.0
 11
-7.24513673121027
 21
5.56772956887312
 31
0.0
  0
LINE
  5
185
102
{ACAD_REACTORS
330
277
102
}
330
1F
100
AcDbEntity
  8
1
  6
Continuous
 62
     7
100
AcDbLine
 10
-7.07856258004711
 20
5.27900104019017
 30
0.0
 11
-7.74522924671373
 21
4.89438565557487
 31
0.0
  0
LINE
  5
186
330
1F
100
AcDbEntity
  8
1
  6
Continuous
 62
     7
100
AcDbLine
 10
-94.5
 20
12.5
 30
0.0
 11
-2.5
 21
12.5
 31
0.0
  0
LINE
  5
187
330
1F
100
AcDbEntity
  8
1
  6
Continuous
 62
     7
100
AcDbLine
 10
-91.0
 20
10.0
 30
0.0
 11
-91.0
 21
12.5
 31
0.0
  0
LINE
  5
188
330
1F
100
AcDbEntity
  8
1
  6
Continuous
 62
     7
100
AcDbLine
 10
-82.0
 20
10.0
 30
0.0
 11
-82.0
 21
12.5
 31
0.0
  0
LINE
  5
189
330
1F
100
AcDbEntity
  8
1
  6
Continuous
 62
     7
100
AcDbLine
 10
-94.5
 20
15.0
 30
0.0
 11
-2.5
 21
15.0
 31
0.0
  0
LINE
  5
18A
330
1F
100
AcDbEntity
  8
1
  6
Continuous
 62
     7
100
AcDbLine
 10
-91.0
 20
12.5
 30
0.0
 11
-91.0
 21
15.0
 31
0.0
  0
LINE
  5
18B
330
1F
100
AcDbEntity
  8
1
  6
Continuous
 62
     7
100
AcDbLine
 10
-82.0
 20
12.5
 30
0.0
 11
-82.0
 21
15.0
 31
0.0
  0
LINE
  5
18C
330
1F
100
AcDbEntity
  8
1
  6
Continuous
 62
     7
100
AcDbLine
 10
-94.5
 20
17.5
 30
0.0
 11
-2.5
 21
17.5
 31
0.0
  0
LINE
  5
18D
330
1F
100
AcDbEntity
  8
1
  6
Continuous
 62
     7
100
AcDbLine
 10
-91.0
 20
15.0
 30
0.0
 11
-91.0
 21
17.5
 31
0.0
  0
LINE
  5
18E
330
1F
100
AcDbEntity
  8
1
  6
Continuous
 62
     7
100
AcDbLine
 10
-82.0
 20
15.0
 30
0.0
 11
-82.0
 21
17.5
 31
0.0
  0
LINE
  5
18F
330
1F
100
AcDbEntity
  8
1
  6
Continuous
 62
     7
100
AcDbLine
 10
-94.5
 20
20.0
 30
0.0
 11
-2.5
 21
20.0
 31
0.0
  0
LINE
  5
190
330
1F
100
AcDbEntity
  8
1
  6
Continuous
 62
     7
100
AcDbLine
 10
-91.0
 20
17.5
 30
0.0
 11
-91.0
 21
20.0
 31
0.0
  0
LINE
  5
191
330
1F
100
AcDbEntity
  8
1
  6
Continuous
 62
     7
100
AcDbLine
 10
-82.0
 20
17.5
 30
0.0
 11
-82.0
 21
20.0
 31
0.0
  0
LINE
  5
192
330
1F
100
AcDbEntity
  8
1
  6
Continuous
 62
     7
100
AcDbLine
 10
-94.5
 20
2.49999999999994
 30
0.0
 11
-2.5
 21
2.49999999999994
 31
0.0
  0
LINE
  5
193
330
1F
100
AcDbEntity
  8
1
  6
Continuous
 62
     7
100
AcDbLine
 10
-94.5
 20
10.0
 30
0.0
 11
-2.5
 21
10.0
 31
0.0
  0
LINE
  5
194
330
1F
100
AcDbEntity
  8
1
  6
Continuous
 62
     7
100
AcDbLine
 10
-27.59999999999955
 20
44.03876067704486
 30
0.0
 11
-76.60000000000066
 21
44.03876067704486
 31
0.0
  0
LINE
  5
195
330
1F
100
AcDbEntity
  8
1
  6
Continuous
 62
     7
100
AcDbLine
 10
-27.59999999999955
 20
40.83876067704481
 30
0.0
 11
-76.60000000000066
 21
40.83876067704481
 31
0.0
  0
ARC
  5
196
102
{ACAD_REACTORS
330
274
102
}
330
1F
100
AcDbEntity
  8
1
  6
Continuous
 62
     7
100
AcDbCircle
 10
-9.86269988272437
 20
7.86560865601728
 30
0.0
 40
0.1324831062376642
100
AcDbArc
 50
30.00000000001384
 51
180.0
  0
ARC
  5
197
102
{ACAD_REACTORS
330
274
102
}
330
1F
100
AcDbEntity
  8
1
  6
Continuous
 62
     7
100
AcDbCircle
 10
-9.82851632229534
 20
5.42379253631645
 30
0.0
 40
0.1666666666666856
100
AcDbArc
 50
180.0
 51
0.0
  0
ARC
  5
198
102
{ACAD_REACTORS
330
274
102
}
330
1F
100
AcDbEntity
  8
1
  6
Continuous
 62
     7
100
AcDbCircle
 10
-8.49518298896197
 20
4.6541345353009
 30
0.0
 40
0.1666666666666856
100
AcDbArc
 50
180.0
 51
0.0
  0
ARC
  5
199
102
{ACAD_REACTORS
330
274
102
}
330
1F
100
AcDbEntity
  8
1
  6
Continuous
 62
     7
100
AcDbCircle
 10
-8.460999428533
 20
7.86560865601728
 30
0.0
 40
0.1324831062376557
100
AcDbArc
 50
0.0
 51
149.9999999999743
  0
ARC
  5
19A
102
{ACAD_REACTORS
330
275
102
}
330
1F
100
AcDbEntity
  8
1
  6
Continuous
 62
     7
100
AcDbCircle
 10
-10.49518298896203
 20
7.46125008008369
 30
0.0
 40
0.1666666666666909
100
AcDbArc
 50
0.0
 51
180.0
  0
ARC
  5
19B
102
{ACAD_REACTORS
330
275
102
}
330
1F
100
AcDbEntity
  8
1
  6
Continuous
 62
     7
100
AcDbCircle
 10
-9.32851632229534
 20
4.36567299683935
 30
0.0
 40
0.1666666666666837
100
AcDbArc
 50
240.0183606311504
 51
60.01836063114937
  0
ARC
  5
19C
102
{ACAD_REACTORS
330
276
102
}
330
1F
100
AcDbEntity
  8
1
  6
Continuous
 62
     7
100
AcDbCircle
 10
-11.16184965562866
 20
7.07663469546833
 30
0.0
 40
0.1666666666666305
100
AcDbArc
 50
0.0
 51
180.0
  0
ARC
  5
19D
102
{ACAD_REACTORS
330
276
102
}
330
1F
100
AcDbEntity
  8
1
  6
Continuous
 62
     7
100
AcDbCircle
 10
-11.16184965562866
 20
5.42336530453161
 30
0.0
 40
0.1666666666666785
100
AcDbArc
 50
180.0
 51
0.0
  0
ARC
  5
19E
102
{ACAD_REACTORS
330
277
102
}
330
1F
100
AcDbEntity
  8
1
  6
Continuous
 62
     7
100
AcDbCircle
 10
-7.16184965562865
 20
7.07663469546833
 30
0.0
 40
0.1666666666666886
100
AcDbArc
 50
240.0183606311493
 51
60.01836063115717
  0
ARC
  5
19F
102
{ACAD_REACTORS
330
277
102
}
330
1F
100
AcDbEntity
  8
1
  6
Continuous
 62
     7
100
AcDbCircle
 10
-7.16184965562865
 20
6.25
 30
0.0
 40
0.1666666666666847
100
AcDbArc
 50
270.0
 51
90.0
  0
ARC
  5
1A0
102
{ACAD_REACTORS
330
277
102
}
330
1F
100
AcDbEntity
  8
1
  6
Continuous
 62
     7
100
AcDbCircle
 10
-7.16184965562865
 20
5.42336530453161
 30
0.0
 40
0.1666666666666572
100
AcDbArc
 50
299.9816393688326
 51
119.9816393688413
  0
SPLINE
  5
1A1
330
1F
100
AcDbEntity
  8
0
  6
Continuous
 62
     7
100
AcDbSpline
210
0.0
220
0.0
230
1.0
 70
     8
 71
     3
 72
    11
 73
     7
 74
     5
 42
0.000000001
 43
0.0000000001
 44
0.00000001
 40
0.0
 40
0.0
 40
0.0
 40
0.0
 40
1.092641226048793
 40
1.950448064458
 40
2.530850817341592
 40
2.805101520070625
 40
2.805101520070625
 40
2.805101520070625
 40
2.805101520070625
 10
-33.37189982712746
 20
72.04324788769485
 30
0.0
 10
-33.73610584525388
 20
72.0499656169009
 30
0.0
 10
-34.38624141229995
 20
72.06195729268214
 30
0.0
 10
-35.22977485139719
 20
72.03237948547346
 30
0.0
 10
-35.80062337582616
 20
72.05958717505209
 30
0.0
 10
-36.08532515182669
 20
72.04721581943792
 30
0.0
 10
-36.1766834231918
 20
72.04324596774195
 30
0.0
 11
-33.37189982712746
 21
72.04324788769485
 31
0.0
 11
-34.46450201344712
 21
72.05248427879827
 31
0.0
 11
-35.32225910062225
 21
72.04324569118182
 31
0.0
 11
-35.90258833495308
 21
72.05248340998357
 31
0.0
 11
-36.1766834231918
 21
72.04324596774195
 31
0.0
  0
SPLINE
  5
1A2
102
{ACAD_REACTORS
330
273
102
}
330
1F
100
AcDbEntity
  8
1
  6
Continuous
 62
     2
100
AcDbSpline
210
0.0
220
0.0
230
1.0
 70
     8
 71
     3
 72
    20
 73
    16
 74
    14
 42
0.000000001
 43
0.0000000001
 44
0.00000001
 40
0.0
 40
0.0
 40
0.0
 40
0.0
 40
1.452645157541695
 40
2.929101717814708
 40
4.3544748132854
 40
5.446957588191532
 40
6.559605255264793
 40
7.592446829303443
 40
8.646584082336766
 40
9.854143116874146
 40
10.9847985198537
 40
11.42100350637233
 40
11.87125483738951
 40
13.24237398830082
 40
14.53823660375232
 40
14.53823660375232
 40
14.53823660375232
 40
14.53823660375232
 10
-36.48661235283248
 20
94.7560321654043
 30
0.0
 10
-36.10197118504573
 20
94.4607024817128
 30
0.0
 10
-35.32638389686232
 20
93.86520215393696
 30
0.0
 10
-34.29708573614705
 20
92.84358059564426
 30
0.0
 10
-33.16246661704632
 20
92.09516300157219
 30
0.0
 10
-31.96206084191147
 20
91.84395281720886
 30
0.0
 10
-30.88343281453324
 20
91.801759869325
 30
0.0
 10
-29.81689218494929
 20
91.80794184783278
 30
0.0
 10
-28.71804046623383
 20
91.8411169165981
 30
0.0
 10
-27.59253003044248
 20
91.8667354643395
 30
0.0
 10
-26.66371688706003
 20
92.1129580165912
 30
0.0
 10
-26.14184564843735
 20
92.54715388972373
 30
0.0
 10
-25.65312971271541
 20
93.12258995252304
 30
0.0
 10
-25.19116444526398
 20
94.06773589607911
 30
0.0
 10
-24.58588124533344
 20
94.72425077266814
 30
0.0
 10
-24.29177955101363
 20
95.0432454909048
 30
0.0
 11
-36.48661235283248
 21
94.7560321654043
 31
0.0
 11
-35.35315565756049
 21
93.84748724119801
 31
0.0
 11
-34.24919123848932
 21
92.86708602916514
 31
0.0
 11
-33.0303156279446
 21
92.12814712049543
 31
0.0
 11
-31.96738923162423
 21
91.8757464626004
 31
0.0
 11
-30.8567241890961
 21
91.80935370946422
 31
0.0
 11
-29.8238861595469
 21
91.81206024920559
 31
0.0
 11
-28.77007640780158
 21
91.83833492864892
 31
0.0
 11
-27.56514495189445
 21
91.91795283775983
 31
0.0
 11
-26.49328320465991
 21
92.27780563821138
 31
0.0
 11
-26.15454722812566
 21
92.55263782133335
 31
0.0
 11
-25.86007750645857
 21
92.89324587237562
 31
0.0
 11
-25.12449534141003
 21
94.05034854894323
 31
0.0
 11
-24.29177955101363
 21
95.0432454909048
 31
0.0
  0
SPLINE
  5
1A3
330
1F
100
AcDbEntity
  8
0
  6
Continuous
 62
     7
100
AcDbSpline
210
0.0
220
0.0
230
1.0
 70
     8
 71
     3
 72
    11
 73
     7
 74
     5
 42
0.000000001
 43
0.0000000001
 44
0.00000001
 40
0.0
 40
0.0
 40
0.0
 40
0.0
 40
1.366729512688926
 40
2.804847458666179
 40
4.242965397994699
 40
5.609694890896189
 40
5.609694890896189
 40
5.609694890896189
 40
5.609694890896189
 10
-33.19656589935653
 20
72.04324789915606
 30
0.0
 10
-32.74100004234039
 20
72.04841379183898
 30
0.0
 10
-31.8060727401132
 20
72.05901542272946
 30
0.0
 10
-30.39177932541569
 20
72.03516015474405
 30
0.0
 10
-28.97748591742616
 20
72.05901542933884
 30
0.0
 10
-28.0425586239617
 20
72.0484138028486
 30
0.0
 10
-27.5869927735173
 20
72.04324791233589
 30
0.0
 11
-33.19656589935653
 21
72.04324789915606
 31
0.0
 11
-31.8298675954975
 21
72.05248407216102
 31
0.0
 11
-30.39177932321853
 21
72.04324569117944
 31
0.0
 11
-28.95369105763184
 21
72.05248407891868
 31
0.0
 11
-27.5869927735173
 21
72.04324791233589
 31
0.0
  0
SPLINE
  5
1A4
330
1F
100
AcDbEntity
  8
0
  6
Continuous
 62
     7
100
AcDbSpline
210
0.0
220
0.0
230
1.0
 70
     8
 71
     3
 72
    11
 73
     7
 74
     5
 42
0.000000001
 43
0.0000000001
 44
0.00000001
 40
0.0
 40
0.0
 40
0.0
 40
0.0
 40
1.09264122604879
 40
1.950448064457989
 40
2.530850817341585
 40
2.805101520070625
 40
2.805101520070625
 40
2.805101520070625
 40
2.805101520070625
 10
-27.4116595610021
 20
72.04324788769485
 30
0.0
 10
-27.04745354287568
 20
72.04996561690095
 30
0.0
 10
-26.39731797582962
 20
72.06195729268208
 30
0.0
 10
-25.55378453673239
 20
72.0323794854735
 30
0.0
 10
-24.9829360123034
 20
72.05958717505209
 30
0.0
 10
-24.69823423630286
 20
72.04721581943791
 30
0.0
 10
-24.60687596493776
 20
72.04324596774195
 30
0.0
 11
-27.4116595610021
 21
72.04324788769485
 31
0.0
 11
-26.31905737468244
 21
72.05248427879827
 31
0.0
 11
-25.46130028750732
 21
72.04324569118182
 31
0.0
 11
-24.88097105317648
 21
72.05248340998357
 31
0.0
 11
-24.60687596493776
 21
72.04324596774195
 31
0.0
  0
SPLINE
  5
1A5
330
1F
100
AcDbEntity
  8
0
  6
Continuous
 62
     7
100
AcDbSpline
210
0.0
220
0.0
230
1.0
 70
     8
 71
     3
 72
    11
 73
     7
 74
     5
 42
0.000000001
 43
0.0000000001
 44
0.00000001
 40
0.0
 40
0.0
 40
0.0
 40
0.0
 40
0.9488386146200024
 40
2.114314879633957
 40
3.439949038305351
 40
4.860850686282778
 40
4.860850686282778
 40
4.860850686282778
 40
4.860850686282778
 10
-68.75321314130727
 20
72.11533806540088
 30
0.0
 10
-68.43755331389255
 20
72.09470854209592
 30
0.0
 10
-67.73416259964397
 20
72.0487394043354
 30
0.0
 10
-66.58709189071176
 20
72.03894784635881
 30
0.0
 10
-65.28312994081352
 20
72.05537652348453
 30
0.0
 10
-64.36840639757466
 20
72.09489395984414
 30
0.0
 10
-63.89518038458572
 20
72.11533804490122
 30
0.0
 11
-68.75321314130727
 21
72.11533806540088
 31
0.0
 11
-67.80590343525998
 21
72.06149534953381
 31
0.0
 11
-66.64057005968453
 21
72.04324569117944
 31
0.0
 11
-65.31506152554347
 21
72.0614953390231
 31
0.0
 11
-63.89518038458572
 21
72.11533804490122
 31
0.0
  0
SPLINE
  5
1A6
330
1F
100
AcDbEntity
  8
0
  6
Continuous
 62
     7
100
AcDbSpline
210
0.0
220
0.0
230
1.0
 70
     8
 71
     3
 72
    11
 73
     7
 74
     5
 42
0.000000001
 43
0.0000000001
 44
0.00000001
 40
0.0
 40
0.0
 40
0.0
 40
0.0
 40
1.420901622960875
 40
2.746535756330773
 40
3.91201199899156
 40
4.860850597034744
 40
4.860850597034744
 40
4.860850597034744
 40
4.860850597034744
 10
-63.69272275206557
 20
72.11533804048356
 30
0.0
 10
-63.21949674738262
 20
72.09489395639626
 30
0.0
 10
-62.30477322085238
 20
72.05537652193934
 30
0.0
 10
-61.0008112951615
 20
72.03894784640876
 30
0.0
 10
-59.85374060766475
 20
72.04873940523655
 30
0.0
 10
-59.15034990638659
 20
72.09470854241087
 30
0.0
 10
-58.83469008449527
 20
72.11533806547222
 30
0.0
 11
-63.69272275206557
 21
72.11533804048356
 31
0.0
 11
-62.27284163603961
 21
72.06149533731512
 31
0.0
 11
-60.94733312717892
 21
72.04324569117938
 31
0.0
 11
-59.78199977396868
 21
72.06149535012746
 31
0.0
 11
-58.83469008449527
 21
72.11533806547222
 31
0.0
  0
SPLINE
  5
1A7
330
1F
100
AcDbEntity
  8
0
  6
Continuous
 62
     7
100
AcDbSpline
210
0.0
220
0.0
230
1.0
 70
     8
 71
     3
 72
     9
 73
     5
 74
     3
 42
0.000000001
 43
0.0000000001
 44
0.00000001
 40
0.0
 40
0.0
 40
0.0
 40
0.0
 40
0.171558238525036
 40
0.3371987408522
 40
0.3371987408522
 40
0.3371987408522
 40
0.3371987408522
 10
-16.05737455738245
 20
129.6926993115256
 30
0.0
 10
-16.03116312164307
 20
129.6417633421676
 30
0.0
 10
-15.97964437115879
 20
129.5416484007182
 30
0.0
 10
-15.91322482289625
 20
129.4507427806996
 30
0.0
 10
-15.88059786208581
 20
129.4060876591739
 30
0.0
 11
-16.05737455738245
 21
129.6926993115256
 31
0.0
 11
-15.97488314210386
 21
129.5422752582981
 31
0.0
 11
-15.88059786208581
 21
129.4060876591739
 31
0.0
  0
SPLINE
  5
1A8
330
1F
100
AcDbEntity
  8
0
  6
Continuous
 62
     7
100
AcDbSpline
210
0.0
220
0.0
230
1.0
 70
     8
 71
     3
 72
    11
 73
     7
 74
     5
 42
0.000000001
 43
0.0000000001
 44
0.00000001
 40
0.0
 40
0.0
 40
0.0
 40
0.0
 40
0.6971344417084517
 40
1.351441255181184
 40
1.948928801520357
 40
2.48425234873692
 40
2.48425234873692
 40
2.48425234873692
 40
2.48425234873692
 10
-13.4057241279329
 20
130.7981171368813
 30
0.0
 10
-13.46951242095979
 20
130.5740681234257
 30
0.0
 10
-13.59317023457351
 20
130.1397342788536
 30
0.0
 10
-13.64670348060871
 20
129.4897593953567
 30
0.0
 10
-13.60620252642054
 20
128.8884611452021
 30
0.0
 10
-13.47005995104506
 20
128.5342573640859
 30
0.0
 10
-13.40572412793292
 20
128.3668740968008
 30
0.0
 11
-13.4057241279329
 21
130.7981171368813
 31
0.0
 11
-13.57406199748027
 21
130.1216123029196
 31
0.0
 11
-13.63111933584243
 21
129.4697980128863
 31
0.0
 11
-13.57406199748028
 21
128.8750410612152
 31
0.0
 11
-13.40572412793292
 21
128.3668740968008
 31
0.0
  0
SPLINE
  5
1A9
330
1F
100
AcDbEntity
  8
0
  6
Continuous
 62
     7
100
AcDbSpline
210
0.0
220
0.0
230
1.0
 70
     8
 71
     3
 72
    21
 73
    17
 74
    15
 42
0.000000001
 43
0.0000000001
 44
0.00000001
 40
0.0
 40
0.0
 40
0.0
 40
0.0
 40
0.2597463713680726
 40
0.534575354266474
 40
0.68568765687585
 40
0.8265439670917556
 40
0.9776275912940705
 40
1.132427525583651
 40
1.283057210681947
 40
1.452611932503042
 40
1.6184138459869
 40
1.787211993574595
 40
1.950053437753706
 40
2.132110749033302
 40
2.315407643094047
 40
2.483544128612519
 40
2.483544128612519
 40
2.483544128612519
 40
2.483544128612519
 10
-13.40302026282455
 20
128.3708348171605
 30
0.0
 10
-13.43780707836115
 20
128.4502517945606
 30
0.0
 10
-13.5094006507908
 20
128.6136972358195
 30
0.0
 10
-13.5658029054954
 20
128.8361896983984
 30
0.0
 10
-13.59858574839404
 20
129.0222530453725
 30
0.0
 10
-13.61617779386928
 20
129.1689689656541
 30
0.0
 10
-13.62668051530749
 20
129.3175644404466
 30
0.0
 10
-13.63011231396039
 20
129.4697549333622
 30
0.0
 10
-13.62663460934307
 20
129.6280906575386
 30
0.0
 10
-13.6159782556021
 20
129.7897915407503
 30
0.0
 10
-13.59771924926263
 20
129.9568957490267
 30
0.0
 10
-13.57302002362925
 20
130.1209038958425
 30
0.0
 10
-13.54108740629576
 20
130.2891733931644
 30
0.0
 10
-13.50157707815853
 20
130.4607867830836
 30
0.0
 10
-13.45542343745095
 20
130.6325878568438
 30
0.0
 10
-13.41997830557124
 20
130.7442527911277
 30
0.0
 10
-13.40302026282456
 20
130.7976767114626
 30
0.0
 11
-13.40302026282455
 21
128.3708348171605
 31
0.0
 11
-13.50085954397441
 21
128.611449973623
 31
0.0
 11
-13.57164947978556
 21
128.8770055358527
 31
0.0
 11
-13.59776082554269
 21
129.0258447987074
 31
0.0
 11
-13.61467096421124
 21
129.1656823750812
 31
0.0
 11
-13.62539974464826
 21
129.3163845820185
 31
0.0
 11
-13.62897943934319
 21
129.471143122187
 31
0.0
 11
-13.62573818285894
 21
129.6217379311678
 31
0.0
 11
-13.61467096421124
 21
129.7909310767699
 31
0.0
 11
-13.59672393048534
 21
129.9557588006379
 31
0.0
 11
-13.57164947978557
 21
130.1226841927042
 31
0.0
 11
-13.54131009088791
 21
130.2826743713741
 31
0.0
 11
-13.50060747054412
 21
130.4601234087298
 31
0.0
 11
-13.45274035402777
 21
130.6370598090137
 31
0.0
 11
-13.40302026282456
 21
130.7976767114626
 31
0.0
  0
SPLINE
  5
1AA
330
1F
100
AcDbEntity
  8
0
  6
Continuous
 62
     7
100
AcDbSpline
210
0.0
220
0.0
230
1.0
 70
     8
 71
     3
 72
    11
 73
     7
 74
     5
 42
0.000000001
 43
0.0000000001
 44
0.00000001
 40
0.0
 40
0.0
 40
0.0
 40
0.0
 40
0.0011989106564728
 40
0.0023978213849046
 40
0.0035967321842533
 40
0.0047956430530115
 40
0.0047956430530115
 40
0.0047956430530115
 40
0.0047956430530115
 10
-13.40572412793292
 20
128.3668740968008
 30
0.0
 10
-13.40549880598429
 20
128.3672041568858
 30
0.0
 10
-13.40504816201185
 20
128.3678642770335
 30
0.0
 10
-13.40437219584775
 20
128.368854457158
 30
0.0
 10
-13.403696229458
 20
128.3698446372141
 30
0.0
 10
-13.40324558506079
 20
128.3705047571862
 30
0.0
 10
-13.40302026282455
 20
128.3708348171605
 30
0.0
 11
-13.40572412793292
 21
128.3668740968008
 31
0.0
 11
-13.40504816204084
 21
128.3678642770243
 31
0.0
 11
-13.40437219589239
 21
128.3688544571599
 31
0.0
 11
-13.40369622948671
 21
128.3698446372057
 31
0.0
 11
-13.40302026282455
 21
128.3708348171605
 31
0.0
  0
SPLINE
  5
1AB
330
1F
100
AcDbEntity
  8
0
  6
Continuous
 62
     7
100
AcDbSpline
210
0.0
220
0.0
230
1.0
 70
     8
 71
     3
 72
    15
 73
    11
 74
     9
 42
0.000000001
 43
0.0000000001
 44
0.00000001
 40
0.0
 40
0.0
 40
0.0
 40
0.0
 40
0.7537212126602139
 40
1.549142998831031
 40
2.374029294514309
 40
3.214135722320439
 40
4.05424215012658
 40
4.879128445809821
 40
5.674550231980668
 40
6.428271444640904
 40
6.428271444640904
 40
6.428271444640904
 40
6.428271444640904
 10
-19.76527066263573
 20
131.3524698177955
 30
0.0
 10
-19.75481752995768
 20
131.6038332808662
 30
0.0
 10
-19.73333291705597
 20
132.120467205559
 30
0.0
 10
-19.57391604050868
 20
132.8986695299182
 30
0.0
 10
-19.32848401758982
 20
133.6823587880013
 30
0.0
 10
-18.99317332226178
 20
134.4489220449523
 30
0.0
 10
-18.58110913389776
 20
135.1771085553854
 30
0.0
 10
-18.10141694118268
 20
135.8436677285702
 30
0.0
 10
-17.57450520762366
 20
136.4381226244236
 30
0.0
 10
-17.1740888356105
 20
136.7652906695607
 30
0.0
 10
-16.97926994476071
 20
136.9244712535456
 30
0.0
 11
-19.76527066263573
 21
131.3524698177955
 31
0.0
 11
-19.71437202813641
 21
132.104470479999
 31
0.0
 11
-19.56316422843854
 21
132.8853879025531
 31
0.0
 11
-19.31606694947555
 21
133.6723951055023
 31
0.0
 11
-18.98030336100492
 21
134.4424870643239
 31
0.0
 11
-18.56568794703005
 21
135.1731531103933
 31
0.0
 11
-18.08434055204847
 21
135.8430352553332
 31
0.0
 11
-17.55033129382389
 21
136.432551948624
 31
0.0
 11
-16.97926994476071
 21
136.9244712535456
 31
0.0
  0
SPLINE
  5
1AC
330
1F
100
AcDbEntity
  8
0
  6
Continuous
 62
     7
100
AcDbSpline
210
0.0
220
0.0
230
1.0
 70
     8
 71
     3
 72
     9
 73
     5
 74
     3
 42
0.000000001
 43
0.0000000001
 44
0.00000001
 40
0.0
 40
0.0
 40
0.0
 40
0.0
 40
0.0296533017723536
 40
0.0593019712657539
 40
0.0593019712657539
 40
0.0593019712657539
 40
0.0593019712657539
 10
-18.51841844073314
 20
128.6224229155861
 30
0.0
 10
-18.52737860379442
 20
128.626597259105
 30
0.0
 10
-18.54529752162003
 20
128.6349453121102
 30
0.0
 10
-18.56301347232169
 20
128.6437158702473
 30
0.0
 10
-18.5718707513807
 20
128.6481008157622
 30
0.0
 11
-18.51841844073314
 21
128.6224229155861
 31
0.0
 11
-18.54524817594937
 21
128.6350515979765
 31
0.0
 11
-18.5718707513807
 21
128.6481008157622
 31
0.0
  0
SPLINE
  5
1AD
330
1F
100
AcDbEntity
  8
0
  6
Continuous
 62
     7
100
AcDbSpline
210
0.0
220
0.0
230
1.0
 70
     8
 71
     3
 72
     9
 73
     5
 74
     3
 42
0.000000001
 43
0.0000000001
 44
0.00000001
 40
0.0
 40
0.0
 40
0.0
 40
0.0
 40
0.1884718067888221
 40
0.3752958144082164
 40
0.3752958144082164
 40
0.3752958144082164
 40
0.3752958144082164
 10
-15.46790751423167
 20
132.3809855253273
 30
0.0
 10
-15.49150367170297
 20
132.3227372037862
 30
0.0
 10
-15.53848966797035
 20
132.2067498156784
 30
0.0
 10
-15.57709858519339
 20
132.0877120349835
 30
0.0
 10
-15.59631827495323
 20
132.0284544690063
 30
0.0
 11
-15.46790751423167
 21
132.3809855253273
 31
0.0
 11
-15.53658327663876
 21
132.205471247556
 31
0.0
 11
-15.59631827495323
 21
132.0284544690063
 31
0.0
  0
SPLINE
  5
1AE
330
1F
100
AcDbEntity
  8
0
  6
Continuous
 62
     7
100
AcDbSpline
210
0.0
220
0.0
230
1.0
 70
     8
 71
     3
 72
     9
 73
     5
 74
     3
 42
0.000000001
 43
0.0000000001
 44
0.00000001
 40
0.0
 40
0.0
 40
0.0
 40
0.0
 40
0.2490129754225897
 40
0.4961049602089099
 40
0.4961049602089099
 40
0.4961049602089099
 40
0.4961049602089099
 10
-15.88059786208581
 20
132.5873306992544
 30
0.0
 10
-15.91295926607615
 20
132.510862225932
 30
0.0
 10
-15.97743240600814
 20
132.3585151818495
 30
0.0
 10
-16.03079605709651
 20
132.2019311919753
 30
0.0
 10
-16.05737455738242
 20
132.1239423516061
 30
0.0
 11
-15.88059786208581
 21
132.5873306992544
 31
0.0
 11
-15.97488314210385
 21
132.3568578201122
 31
0.0
 11
-16.05737455738242
 21
132.1239423516061
 31
0.0
  0
SPLINE
  5
1AF
330
1F
100
AcDbEntity
  8
0
  6
Continuous
 62
     2
100
AcDbSpline
210
0.0
220
0.0
230
1.0
 70
     8
 71
     3
 72
    25
 73
    21
 74
    19
 42
0.000000001
 43
0.0000000001
 44
0.00000001
 40
0.0
 40
0.0
 40
0.0
 40
0.0
 40
0.509962153305427
 40
0.9933136358779285
 40
1.489235475246422
 40
2.03193738089661
 40
2.639933676048425
 40
3.315427963028154
 40
4.048282428600659
 40
4.820182121603874
 40
5.608082617016049
 40
6.387153262544672
 40
7.133538917193792
 40
7.827220978854506
 40
8.455281194512752
 40
9.015868314325834
 40
9.436113467152301
 40
9.835837659187042
 40
10.23664064959891
 40
10.65981798982107
 40
10.65981798982107
 40
10.65981798982107
 40
10.65981798982107
 10
-13.41070632519266
 20
135.2912990098548
 30
0.0
 10
-13.50928195411148
 20
135.4318755970709
 30
0.0
 10
-13.70128937813057
 20
135.705693246536
 30
0.0
 10
-14.14550765166527
 20
135.9610707232513
 30
0.0
 10
-14.65544650170289
 20
136.0429318611237
 30
0.0
 10
-15.20461285156104
 20
135.9486162742578
 30
0.0
 10
-15.76321769994011
 20
135.6943056850263
 30
0.0
 10
-16.30879203309914
 20
135.2951710527989
 30
0.0
 10
-16.81673708863746
 20
134.7712535222311
 30
0.0
 10
-17.26328167750054
 20
134.1478903394473
 30
0.0
 10
-17.62681380907533
 20
133.4554671231394
 30
0.0
 10
-17.88958072626014
 20
132.7278296188726
 30
0.0
 10
-18.03870736440844
 20
132.0004093952846
 30
0.0
 10
-18.06660859671305
 20
131.3080602549129
 30
0.0
 10
-17.97093480065386
 20
130.6832306756644
 30
0.0
 10
-17.76312420129842
 20
130.1814521178327
 30
0.0
 10
-17.47264402929757
 20
129.816761095402
 30
0.0
 10
-17.13272366060237
 20
129.5833169015976
 30
0.0
 10
-16.73551651895086
 20
129.4581646799518
 30
0.0
 10
-16.4594011810651
 20
129.4709539760476
 30
0.0
 10
-16.31759469594238
 20
129.4775222683554
 30
0.0
 11
-13.41070632519266
 21
135.2912990098548
 31
0.0
 11
-13.73391987023038
 21
135.6857535842827
 31
0.0
 11
-14.1505291473059
 21
135.9308359553668
 31
0.0
 11
-14.63940829513297
 21
136.0141165110483
 31
0.0
 11
-15.17576539544518
 21
135.9313734120038
 31
0.0
 11
-15.73240167677188
 21
135.6868012426275
 31
0.0
 11
-16.28108965910403
 21
135.2928037426188
 31
0.0
 11
-16.79400479448636
 21
134.7693596378971
 31
0.0
 11
-17.24513719567761
 21
134.1430141339373
 31
0.0
 11
-17.61160899701648
 21
133.4455289324933
 31
0.0
 11
-17.87483693832256
 21
132.7122744616364
 31
0.0
 11
-18.02147161644448
 21
131.980434441212
 31
0.0
 11
-18.04407809219618
 21
131.2871208397837
 31
0.0
 11
-17.94150892744556
 21
130.6674925628579
 31
0.0
 11
-17.71896650904068
 21
130.1529706567837
 31
0.0
 11
-17.45367195349673
 21
129.8270492123019
 31
0.0
 11
-17.12381344810438
 21
129.6012776530437
 31
0.0
 11
-16.74073097079993
 21
129.4834181835442
 31
0.0
 11
-16.31759469594238
 21
129.4775222683554
 31
0.0
  0
SPLINE
  5
1B0
330
1F
100
AcDbEntity
  8
0
  6
Continuous
 62
     7
100
AcDbSpline
210
0.0
220
0.0
230
1.0
 70
     8
 71
     3
 72
     9
 73
     5
 74
     3
 42
0.000000001
 43
0.0000000001
 44
0.00000001
 40
0.0
 40
0.0
 40
0.0
 40
0.0
 40
0.0296486694936416
 40
0.0593019712662081
 40
0.0593019712662081
 40
0.0593019712662081
 40
0.0593019712662081
 10
-14.09973479638112
 20
137.5923727257614
 30
0.0
 10
-14.09091247253369
 20
137.5879178698231
 30
0.0
 10
-14.07326645560293
 20
137.5790074441439
 30
0.0
 10
-14.05583666250322
 20
137.5696811416866
 30
0.0
 10
-14.04712108985125
 20
137.5650176173489
 30
0.0
 11
-14.09973479638112
 21
137.5923727257614
 31
0.0
 11
-14.07332187689352
 21
137.5789041960877
 31
0.0
 11
-14.04712108985125
 21
137.5650176173489
 31
0.0
  0
SPLINE
  5
1B1
330
1F
100
AcDbEntity
  8
0
  6
Continuous
 62
     7
100
AcDbSpline
210
0.0
220
0.0
230
1.0
 70
     8
 71
     3
 72
    27
 73
    23
 74
    21
 42
0.000000001
 43
0.0000000001
 44
0.00000001
 40
0.0
 40
0.0
 40
0.0
 40
0.0
 40
0.4538078226272956
 40
0.9233932834879719
 40
1.421777416750604
 40
1.957646759519845
 40
2.535107285270422
 40
3.154211900110858
 40
3.919411102173116
 40
4.726945913053097
 40
5.564393933270842
 40
6.417293867594757
 40
7.270193801918623
 40
8.10764182213637
 40
8.915176633016374
 40
9.680375835078543
 40
10.29948044991909
 40
10.87694097566967
 40
11.41281031843886
 40
11.91119445170151
 40
12.38077991256217
 40
12.83458773518946
 40
12.83458773518946
 40
12.83458773518946
 40
12.83458773518946
 10
-13.99366877920317
 20
137.5393397171725
 30
0.0
 10
-14.13410328610956
 20
137.59747848777
 30
0.0
 10
-14.41985482219808
 20
137.7157773385325
 30
0.0
 10
-14.89811178891078
 20
137.7601609851787
 30
0.0
 10
-15.39892774230765
 20
137.7081271061123
 30
0.0
 10
-15.91631673931414
 20
137.5526937767332
 30
0.0
 10
-16.43831496914937
 20
137.3012319497425
 30
0.0
 10
-16.98478368166896
 20
136.9388519825717
 30
0.0
 10
-17.53799700486732
 20
136.4583915434496
 30
0.0
 10
-18.07698319961871
 20
135.8602104823784
 30
0.0
 10
-18.5627980125114
 20
135.1819904860692
 30
0.0
 10
-18.98159407927053
 20
134.4431324234566
 30
0.0
 10
-19.32140288930505
 20
133.6647807324818
 30
0.0
 10
-19.5724899986168
 20
132.8691968843821
 30
0.0
 10
-19.7276431306231
 20
132.0790992919383
 30
0.0
 10
-19.78008348800161
 20
131.3482523699063
 30
0.0
 10
-19.74210623422647
 20
130.6936494195882
 30
0.0
 10
-19.63007675791798
 20
130.1251737395256
 30
0.0
 10
-19.44399002321732
 20
129.6180025442929
 30
0.0
 10
-19.18512755443237
 20
129.1861294541356
 30
0.0
 10
-18.86266645708772
 20
128.8301540687532
 30
0.0
 10
-18.59657645482458
 20
128.6725321503399
 30
0.0
 10
-18.46580473420275
 20
128.5950678071733
 30
0.0
 11
-13.99366877920317
 21
137.5393397171725
 31
0.0
 11
-14.42097653249711
 21
137.6921455731442
 31
0.0
 11
-14.88766030080322
 21
137.7442682231596
 31
0.0
 11
-15.38356060340368
 21
137.694572818309
 31
0.0
 11
-15.89788183569363
 21
137.5441413673076
 31
0.0
 11
-16.41942743335993
 21
137.2962485529844
 31
0.0
 11
-16.93684353788957
 21
136.9562910586989
 31
0.0
 11
-17.5166012526745
 21
136.4568805968495
 31
0.0
 11
-18.05874263158269
 21
135.8583864919859
 31
0.0
 11
-18.5474201899396
 21
135.1783030961078
 31
0.0
 11
-18.96834954422879
 21
134.4365101559358
 31
0.0
 11
-19.30922628379288
 21
133.6546909084012
 31
0.0
 11
-19.56008646548119
 21
132.8556988241888
 31
0.0
 11
-19.71359692202725
 21
132.0628892581441
 31
0.0
 11
-19.76527066263573
 21
131.2994368092066
 31
0.0
 11
-19.72678699534634
 21
130.6815294290115
 31
0.0
 11
-19.61217388820511
 21
130.1155572622845
 31
0.0
 11
-19.42392630963225
 21
129.6138414058518
 31
0.0
 11
-19.16614245195249
 21
129.187303920861
 31
0.0
 11
-18.84443407095647
 21
128.8452304962254
 31
0.0
 11
-18.46580473420275
 21
128.5950678071733
 31
0.0
  0
SPLINE
  5
1B2
330
1F
100
AcDbEntity
  8
0
  6
Continuous
 62
     2
100
AcDbSpline
210
0.0
220
0.0
230
1.0
 70
     8
 71
     3
 72
    21
 73
    17
 74
    15
 42
0.000000001
 43
0.0000000001
 44
0.00000001
 40
0.0
 40
0.0
 40
0.0
 40
0.0
 40
0.464976897628476
 40
0.9673244174494207
 40
1.530382846558859
 40
2.16015832156031
 40
2.848875117966986
 40
3.579489736993917
 40
4.329481208234264
 40
5.074030053309251
 40
5.788948979111227
 40
6.453681328781911
 40
7.054699656948694
 40
7.58964542743876
 40
7.970886052058042
 40
8.333546608360285
 40
8.333546608360285
 40
8.333546608360285
 40
8.333546608360285
 10
-13.94544210343391
 20
135.5586668989755
 30
0.0
 10
-14.09275987337982
 20
135.6122029613364
 30
0.0
 10
-14.39923548174611
 20
135.7235778132915
 30
0.0
 10
-14.92130779312817
 20
135.6674902974357
 30
0.0
 10
-15.45191939417419
 20
135.4646428657725
 30
0.0
 10
-15.97692053510087
 20
135.1123045273108
 30
0.0
 10
-16.46940373504789
 20
134.6350135737023
 30
0.0
 10
-16.90621332335267
 20
134.0553217473888
 30
0.0
 10
-17.26499156936426
 20
133.4033883046555
 30
0.0
 10
-17.52739410849136
 20
132.7125822180561
 30
0.0
 10
-17.67996478935222
 20
132.0182058376599
 30
0.0
 10
-17.71436505025655
 20
131.3556373539747
 30
0.0
 10
-17.62864851959171
 20
130.7562038653274
 30
0.0
 10
-17.43331607147514
 20
130.2841484376829
 30
0.0
 10
-17.16864399134545
 20
129.9397126313845
 30
0.0
 10
-16.95599792955831
 20
129.8087405691353
 30
0.0
 10
-16.85233047418362
 20
129.7448901574761
 30
0.0
 11
-13.94544210343391
 21
135.5586668989755
 31
0.0
 11
-14.39282891651058
 21
135.6853498086853
 31
0.0
 11
-14.89393487065525
 21
135.6500530460205
 31
0.0
 11
-15.42200331207932
 21
135.4546598153791
 31
0.0
 11
-15.94883740378503
 21
135.1096047668261
 31
0.0
 11
-16.4463061953673
 21
134.6333111350931
 31
0.0
 11
-16.88784726426978
 21
134.05121217598
 31
0.0
 11
-17.2498834740569
 21
133.394388776912
 31
0.0
 11
-17.51308438712168
 21
132.6979131812535
 31
0.0
 11
-17.66339515415943
 21
131.9989741704017
 31
0.0
 11
-17.69279087744614
 21
131.334892107427
 31
0.0
 11
-17.59970081087713
 21
130.7411267761076
 31
0.0
 11
-17.3890967048201
 21
130.2493820390704
 31
0.0
 11
-17.14938479888705
 21
129.9529320082804
 31
0.0
 11
-16.85233047418362
 21
129.7448901574761
 31
0.0
  0
SPLINE
  5
1B3
330
1F
100
AcDbEntity
  8
0
  6
Continuous
 62
     7
100
AcDbSpline
210
0.0
220
0.0
230
1.0
 70
     8
 71
     3
 72
     9
 73
     5
 74
     3
 42
0.000000001
 43
0.0000000001
 44
0.00000001
 40
0.0
 40
0.0
 40
0.0
 40
0.0
 40
0.1782821346330146
 40
0.3580928665527973
 40
0.3580928665527973
 40
0.3580928665527973
 40
0.3580928665527973
 10
-13.12743591504811
 20
130.7940132890537
 30
0.0
 10
-13.09317551062681
 20
130.8425941440093
 30
0.0
 10
-13.02436096846577
 20
130.9401723990283
 30
0.0
 10
-12.96234226604575
 20
131.0422053915694
 30
0.0
 10
-12.93120055313226
 20
131.0934396682588
 30
0.0
 11
-13.12743591504811
 21
130.7940132890537
 31
0.0
 11
-13.02633919607656
 21
130.9408600562071
 31
0.0
 11
-12.93120055313226
 21
131.0934396682588
 31
0.0
  0
SPLINE
  5
1B4
330
1F
100
AcDbEntity
  8
0
  6
Continuous
 62
     7
100
AcDbSpline
210
0.0
220
0.0
230
1.0
 70
     8
 71
     3
 72
     9
 73
     5
 74
     3
 42
0.000000001
 43
0.0000000001
 44
0.00000001
 40
0.0
 40
0.0
 40
0.0
 40
0.0
 40
0.1940562144943853
 40
0.3955662156435005
 40
0.3955662156435005
 40
0.3955662156435005
 40
0.3955662156435005
 10
-13.80789603113905
 20
134.839303134768
 30
0.0
 10
-13.86735623738645
 20
134.8136913798228
 30
0.0
 10
-13.98856053462833
 20
134.7614840928316
 30
0.0
 10
-14.10310035842031
 20
134.6959241194509
 30
0.0
 10
-14.16144942173231
 20
134.6625264394714
 30
0.0
 11
-13.80789603113905
 21
134.839303134768
 31
0.0
 11
-13.98467272643568
 21
134.7592543088533
 31
0.0
 11
-14.16144942173231
 21
134.6625264394714
 31
0.0
  0
SPLINE
  5
1B5
330
1F
100
AcDbEntity
  8
0
  6
Continuous
 62
     7
100
AcDbSpline
210
0.0
220
0.0
230
1.0
 70
     8
 71
     3
 72
    11
 73
     7
 74
     5
 42
0.000000001
 43
0.0000000001
 44
0.00000001
 40
0.0
 40
0.0
 40
0.0
 40
0.0
 40
0.0263076203158232
 40
0.0526159873359178
 40
0.0789251436210166
 40
0.1052351353181092
 40
0.1052351353181092
 40
0.1052351353181092
 40
0.1052351353181092
 10
-13.10895616183931
 20
130.7497681821108
 30
0.0
 10
-13.1003011212263
 20
130.748357771037
 30
0.0
 10
-13.08299079675191
 20
130.745536894052
 30
0.0
 10
-13.05702496688307
 20
130.7413052748614
 30
0.0
 10
-13.03105839055468
 20
130.7370733216915
 30
0.0
 10
-13.0137471052887
 20
130.734251790264
 30
0.0
 10
-13.00509132644022
 20
130.7328409947498
 30
0.0
 11
-13.10895616183931
 21
130.7497681821108
 31
0.0
 11
-13.08299104736022
 21
130.7455369037259
 31
0.0
 11
-13.05702523055517
 21
130.741305292577
 31
0.0
 11
-13.03105867137598
 21
130.7370733298135
 31
0.0
 11
-13.00509132644022
 21
130.7328409947498
 31
0.0
  0
SPLINE
  5
1B6
330
1F
100
AcDbEntity
  8
0
  6
Continuous
 62
     7
100
AcDbSpline
210
0.0
220
0.0
230
1.0
 70
     8
 71
     3
 72
    11
 73
     7
 74
     5
 42
0.000000001
 43
0.0000000001
 44
0.00000001
 40
0.0
 40
0.0
 40
0.0
 40
0.0
 40
0.0006848746278037
 40
0.0013697495285368
 40
0.0020546247028034
 40
0.0027395001503071
 40
0.0027395001503071
 40
0.0027395001503071
 40
0.0027395001503071
 10
-13.4057241279329
 20
130.7981171368813
 30
0.0
 10
-13.40549880596799
 20
130.7980804348302
 30
0.0
 10
-13.40504816195211
 20
130.7980070306906
 30
0.0
 10
-13.40437219580443
 20
130.7978969243914
 30
0.0
 10
-13.40369622939807
 20
130.7977868179807
 30
0.0
 10
-13.4032455850445
 20
130.7977134136476
 30
0.0
 10
-13.40302026282456
 20
130.7976767114626
 30
0.0
 11
-13.4057241279329
 21
130.7981171368813
 31
0.0
 11
-13.40504816204099
 21
130.7980070307108
 31
0.0
 11
-13.40437219589271
 21
130.7978969244165
 31
0.0
 11
-13.4036962294871
 21
130.7977868180006
 31
0.0
 11
-13.40302026282456
 21
130.7976767114626
 31
0.0
  0
SPLINE
  5
1B7
330
1F
100
AcDbEntity
  8
0
  6
Continuous
 62
     7
100
AcDbSpline
210
0.0
220
0.0
230
1.0
 70
     8
 71
     3
 72
     9
 73
     5
 74
     3
 42
0.000000001
 43
0.0000000001
 44
0.00000001
 40
0.0
 40
0.0
 40
0.0
 40
0.0
 40
0.015093865845472
 40
0.0301879429989197
 40
0.0301879429989197
 40
0.0301879429989197
 40
0.0301879429989197
 10
-13.40302026282456
 20
130.7976767114626
 30
0.0
 10
-13.40756323347244
 20
130.7998389516948
 30
0.0
 10
-13.41664923331247
 20
130.8041634730513
 30
0.0
 10
-13.42573522304152
 20
130.8084880156514
 30
0.0
 10
-13.43027824717809
 20
130.8106503073977
 30
0.0
 11
-13.40302026282456
 21
130.7976767114626
 31
0.0
 11
-13.41664916971279
 21
130.8041634427807
 31
0.0
 11
-13.43027824717809
 21
130.8106503073977
 31
0.0
  0
SPLINE
  5
1B8
330
1F
100
AcDbEntity
  8
0
  6
Continuous
 62
     7
100
AcDbSpline
210
0.0
220
0.0
230
1.0
 70
     8
 71
     3
 72
    19
 73
    15
 74
    13
 42
0.000000001
 43
0.0000000001
 44
0.00000001
 40
0.0
 40
0.0
 40
0.0
 40
0.0
 40
0.3617890887945917
 40
0.7227607941874954
 40
1.081001643249628
 40
1.432980297523963
 40
1.605439060412971
 40
1.775425975378825
 40
1.943452466164584
 40
2.108458637570946
 40
2.27767065454691
 40
2.427919365286269
 40
2.581428918248985
 40
2.731247162382119
 40
2.731247162382119
 40
2.731247162382119
 40
2.731247162382119
 10
-13.22624356752782
 20
131.2610650591111
 30
0.0
 10
-13.17584803457063
 20
131.370678292127
 30
0.0
 10
-13.07517081322855
 20
131.5896571047352
 30
0.0
 10
-12.89665203921522
 20
131.903157423948
 30
0.0
 10
-12.70026957123215
 20
132.2016297787746
 30
0.0
 10
-12.52097123387926
 20
132.4353008746716
 30
0.0
 10
-12.37001549343709
 20
132.6108369909319
 30
0.0
 10
-12.2541836034716
 20
132.7355435326193
 30
0.0
 10
-12.13528437866727
 20
132.853833629729
 30
0.0
 10
-12.01182128597484
 20
132.9669706709195
 30
0.0
 10
-11.88810610988211
 20
133.070863156249
 30
0.0
 10
-11.76286959339499
 20
133.1666857681266
 30
0.0
 10
-11.63902740098868
 20
133.2535725461123
 30
0.0
 10
-11.55279748639533
 20
133.3064079683938
 30
0.0
 10
-11.51020720719917
 20
133.3325041864266
 30
0.0
 11
-13.22624356752782
 21
131.2610650591111
 31
0.0
 11
-13.07037616034077
 21
131.5875565518967
 31
0.0
 11
-12.89290576278727
 21
131.9018889061352
 31
0.0
 11
-12.69554385788618
 21
132.2008617870173
 31
0.0
 11
-12.48113844869022
 21
132.4800020621573
 31
0.0
 11
-12.36865058093703
 21
132.6107250690662
 31
0.0
 11
-12.25293009576447
 21
132.7352414161973
 31
0.0
 11
-12.13376920919784
 21
132.8537048492948
 31
0.0
 11
-12.01207793734822
 21
132.9651421472804
 31
0.0
 11
-11.88241894719894
 21
133.0738677358387
 31
0.0
 11
-11.76312008940917
 21
133.1652047940927
 31
0.0
 11
-11.63714595728715
 21
133.2529299416059
 31
0.0
 11
-11.51020720719917
 21
133.3325041864266
 31
0.0
  0
SPLINE
  5
1B9
330
1F
100
AcDbEntity
  8
0
  6
Continuous
 62
     7
100
AcDbSpline
210
0.0
220
0.0
230
1.0
 70
     8
 71
     3
 72
    11
 73
     7
 74
     5
 42
0.000000001
 43
0.0000000001
 44
0.00000001
 40
0.0
 40
0.0
 40
0.0
 40
0.0
 40
0.000684874627944
 40
0.0013697495292012
 40
0.0020546247037304
 40
0.0027395001510399
 40
0.0027395001510399
 40
0.0027395001510399
 40
0.0027395001510399
 10
-13.22894743263736
 20
131.261505484527
 30
0.0
 10
-13.22872211067246
 20
131.2614687824756
 30
0.0
 10
-13.22827146665636
 20
131.2613953783358
 30
0.0
 10
-13.22759550050827
 20
131.2612852720373
 30
0.0
 10
-13.22691953410153
 20
131.2611751656277
 30
0.0
 10
-13.22646888974775
 20
131.2611017612956
 30
0.0
 10
-13.22624356752782
 20
131.2610650591111
 30
0.0
 11
-13.22894743263736
 21
131.261505484527
 31
0.0
 11
-13.22827146674537
 21
131.2613953783561
 31
0.0
 11
-13.22759550059632
 21
131.2612852720633
 31
0.0
 11
-13.22691953419035
 21
131.2611751656481
 31
0.0
 11
-13.22624356752782
 21
131.2610650591111
 31
0.0
  0
SPLINE
  5
1BA
330
1F
100
AcDbEntity
  8
0
  6
Continuous
 62
     7
100
AcDbSpline
210
0.0
220
0.0
230
1.0
 70
     8
 71
     3
 72
    11
 73
     7
 74
     5
 42
0.000000001
 43
0.0000000001
 44
0.00000001
 40
0.0
 40
0.0
 40
0.0
 40
0.0
 40
0.0010542110928227
 40
0.0021084220600807
 40
0.0031626329015031
 40
0.0042168436167883
 40
0.0042168436167883
 40
0.0042168436167883
 40
0.0042168436167883
 10
-11.51020720719917
 20
133.3325041864266
 30
0.0
 10
-11.51017318942419
 20
133.3328539396963
 30
0.0
 10
-11.51010515380774
 20
133.3335534461872
 30
0.0
 10
-11.51000310017765
 20
133.3346027058405
 30
0.0
 10
-11.50990104634834
 20
133.3356519653479
 30
0.0
 10
-11.50983301032541
 20
133.3363514716306
 30
0.0
 10
-11.50979899228079
 20
133.3367012247477
 30
0.0
 11
-11.51020720719917
 21
133.3325041864266
 31
0.0
 11
-11.5101051538214
 21
133.3335534462306
 31
0.0
 11
-11.51000310020902
 21
133.3346027058857
 31
0.0
 11
-11.50990104636191
 21
133.3356519653915
 31
0.0
 11
-11.50979899228079
 21
133.3367012247477
 31
0.0
  0
SPLINE
  5
1BB
330
1F
100
AcDbEntity
  8
0
  6
Continuous
 62
     7
100
AcDbSpline
210
0.0
220
0.0
230
1.0
 70
     8
 71
     3
 72
    11
 73
     7
 74
     5
 42
0.000000001
 43
0.0000000001
 44
0.00000001
 40
0.0
 40
0.0
 40
0.0
 40
0.0
 40
0.6239201775252237
 40
1.299316079328282
 40
2.009454142701746
 40
2.73350018228171
 40
2.73350018228171
 40
2.73350018228171
 40
2.73350018228171
 10
-11.50979899228079
 20
133.3367012247477
 30
0.0
 10
-11.68225202747988
 20
133.2194174278103
 30
0.0
 10
-12.04138610256491
 20
132.9751734743423
 30
0.0
 10
-12.50058773730026
 20
132.4815793517205
 30
0.0
 10
-12.9148928241926
 20
131.910265142814
 30
0.0
 10
-13.12358796171321
 20
131.4791522762549
 30
0.0
 10
-13.22894743263736
 20
131.261505484527
 30
0.0
 11
-11.50979899228079
 21
133.3367012247477
 31
0.0
 11
-12.01281265811231
 21
132.967575715869
 31
0.0
 11
-12.48207081641428
 21
132.4818222726004
 31
0.0
 11
-12.89427163635398
 21
131.9035606058957
 31
0.0
 11
-13.22894743263736
 21
131.261505484527
 31
0.0
  0
SPLINE
  5
1BC
330
1F
100
AcDbEntity
  8
0
  6
Continuous
 62
     7
100
AcDbSpline
210
0.0
220
0.0
230
1.0
 70
     8
 71
     3
 72
    31
 73
    27
 74
    25
 42
0.000000001
 43
0.0000000001
 44
0.00000001
 40
0.0
 40
0.0
 40
0.0
 40
0.0
 40
0.8806473665961722
 40
1.671975419948512
 40
2.384890206022975
 40
3.050710889181687
 40
3.297641476780164
 40
3.547207369090032
 40
4.234673651246336
 40
4.992301262090999
 40
5.835787199369029
 40
6.763401068144629
 40
7.760593069396964
 40
8.8043006497901
 40
9.866523525302664
 40
10.91743003156112
 40
11.92829918618598
 40
12.87456275764626
 40
13.73923394085006
 40
14.51703061773069
 40
15.21904688432022
 40
15.87575066706136
 40
16.54157135021993
 40
17.25448613629414
 40
18.04581418964593
 40
18.92646155624246
 40
18.92646155624246
 40
18.92646155624246
 40
18.92646155624246
 10
-12.0410532599038
 20
134.6064724772105
 30
0.0
 10
-12.06080872703165
 20
134.9003364905616
 30
0.0
 10
-12.09831597402826
 20
135.458259474603
 30
0.0
 10
-12.35762744824283
 20
136.2203444852706
 30
0.0
 10
-12.76485510726574
 20
136.8301827362039
 30
0.0
 10
-13.2081515018559
 20
137.1632923287676
 30
0.0
 10
-13.56630376200448
 20
137.3133376667812
 30
0.0
 10
-13.94790049887785
 20
137.4179122094913
 30
0.0
 10
-14.52298058108511
 20
137.4354266568961
 30
0.0
 10
-15.26855893343161
 20
137.2401777858302
 30
0.0
 10
-16.02036233479772
 20
136.8462242804899
 30
0.0
 10
-16.74872013466481
 20
136.2726419363695
 30
0.0
 10
-17.42420630513705
 20
135.5447662613382
 30
0.0
 10
-18.01810489497825
 20
134.694125958979
 30
0.0
 10
-18.50470136108725
 20
133.7578150630245
 30
0.0
 10
-18.86273590162953
 20
132.7767561831861
 30
0.0
 10
-19.07651695123658
 20
131.7936770634869
 30
0.0
 10
-19.13648822367404
 20
130.8508878911024
 30
0.0
 10
-19.03898836785918
 20
129.988100024801
 30
0.0
 10
-18.78498738471954
 20
129.2411357992749
 30
0.0
 10
-18.37815890939442
 20
128.6435124949387
 30
0.0
 10
-17.82716046130305
 20
128.2305462048149
 30
0.0
 10
-17.1613971362504
 20
128.0377279126464
 30
0.0
 10
-16.42892042999993
 20
128.0775652864298
 30
0.0
 10
-15.66374755114409
 20
128.327453369565
 30
0.0
 10
-15.19489257102104
 20
128.6321884843856
 30
0.0
 10
-14.94794163065352
 20
128.792695735711
 30
0.0
 11
-12.0410532599038
 21
134.6064724772105
 31
0.0
 11
-12.14034872597665
 21
135.4815040264174
 31
0.0
 11
-12.39900945920746
 21
136.2293641163226
 31
0.0
 11
-12.80503714776053
 21
136.8153581513327
 31
0.0
 11
-13.33959500660561
 21
137.2123028308737
 31
0.0
 11
-13.56723173609901
 21
137.3079910466409
 31
0.0
 11
-13.80789603113904
 21
137.3740503523572
 31
0.0
 11
-14.49473467296673
 21
137.4034199041969
 31
0.0
 11
-15.2303787998002
 21
137.2222368010578
 31
0.0
 11
-15.9816131136619
 21
136.8386803730359
 31
0.0
 11
-16.71451818888954
 21
136.2700701010445
 31
0.0
 11
-17.39600195249124
 21
135.5420785020956
 31
0.0
 11
-17.9952947647491
 21
134.6875765190149
 31
0.0
 11
-18.48533695472426
 21
133.7451455720917
 31
0.0
 11
-18.84400313402288
 21
132.7573383757133
 31
0.0
 11
-19.05509801835568
 21
131.7687558559746
 31
0.0
 11
-19.10909135150997
 21
130.8240339562951
 31
0.0
 11
-19.0035441913469
 21
129.9658288214866
 31
0.0
 11
-18.74322321025821
 21
129.2328890839474
 31
0.0
 11
-18.33988132466931
 21
128.6583090953384
 31
0.0
 11
-17.81173096160519
 21
128.2680309208745
 31
0.0
 11
-17.17344050266537
 21
128.078551441523
 31
0.0
 11
-16.46102866152543
 21
128.1053257116866
 31
0.0
 11
-15.70754414966279
 21
128.3471131790451
 31
0.0
 11
-14.94794163065352
 21
128.792695735711
 31
0.0
  0
SPLINE
  5
1BD
330
1F
100
AcDbEntity
  8
0
  6
Continuous
 62
     7
100
AcDbSpline
210
0.0
220
0.0
230
1.0
 70
     8
 71
     3
 72
    21
 73
    17
 74
    15
 42
0.000000001
 43
0.0000000001
 44
0.00000001
 40
0.0
 40
0.0
 40
0.0
 40
0.0
 40
0.4225868018623296
 40
0.8772595226729785
 40
1.384652935498218
 40
1.950952625920607
 40
2.570584067421839
 40
3.229874210416861
 40
3.910176649818183
 40
4.590479089219465
 40
5.249769232214472
 40
5.8694006737157
 40
6.435700364138091
 40
6.94309377696336
 40
7.39776649777404
 40
7.820353299636377
 40
7.820353299636377
 40
7.820353299636377
 40
7.820353299636377
 10
-22.38545951922863
 20
132.7350614777485
 30
0.0
 10
-22.50494569647413
 20
132.8124613983467
 30
0.0
 10
-22.75299031593473
 20
132.973138026638
 30
0.0
 10
-23.0021756950087
 20
133.3768258106937
 30
0.0
 10
-23.15288744486153
 20
133.8663428932999
 30
0.0
 10
-23.19537357664706
 20
134.4336705904816
 30
0.0
 10
-23.13218680233628
 20
135.0479708410099
 30
0.0
 10
-22.96621107842459
 20
135.6820743117279
 30
0.0
 10
-22.70579822190662
 20
136.3052344947747
 30
0.0
 10
-22.36351778937996
 20
136.8874608898171
 30
0.0
 10
-21.95582044715249
 20
137.4007035513772
 30
0.0
 10
-21.50229231131641
 20
137.819833121143
 30
0.0
 10
-21.02293847449977
 20
138.1262408340235
 30
0.0
 10
-20.54089775850304
 20
138.299381683705
 30
0.0
 10
-20.06843630381414
 20
138.3422460508793
 30
0.0
 10
-19.79106822950471
 20
138.2402163322855
 30
0.0
 10
-19.65745658667888
 20
138.191067342848
 30
0.0
 11
-22.38545951922863
 21
132.7350614777485
 31
0.0
 11
-22.72299416671466
 21
132.9893250642628
 31
0.0
 11
-22.97520703915125
 21
133.3676317611797
 31
0.0
 11
-23.1294503766024
 21
133.8510126327617
 31
0.0
 11
-23.17799061119861
 21
134.4152281795638
 31
0.0
 11
-23.11839285396228
 21
135.0319868263195
 31
0.0
 11
-22.9536464619494
 21
135.6703614143129
 31
0.0
 11
-22.69201167676477
 21
136.2983412222038
 31
0.0
 11
-22.34660870156286
 21
136.8844369350859
 31
0.0
 11
-21.93475686637582
 21
137.3992588014923
 31
0.0
 11
-21.47710860331312
 21
137.8169921953348
 31
0.0
 11
-20.99661202511375
 21
138.1166893357391
 31
0.0
 11
-20.51736132537743
 21
138.2833231887274
 31
0.0
 11
-20.06338824438192
 21
138.3085369089283
 31
0.0
 11
-19.65745658667888
 21
138.191067342848
 31
0.0
  0
SPLINE
  5
1BE
330
1F
100
AcDbEntity
  8
0
  6
Continuous
 62
     7
100
AcDbSpline
210
0.0
220
0.0
230
1.0
 70
     8
 71
     3
 72
    23
 73
    19
 74
    17
 42
0.000000001
 43
0.0000000001
 44
0.00000001
 40
0.0
 40
0.0
 40
0.0
 40
0.0
 40
0.6567037784525191
 40
1.358720038287276
 40
2.136516716667143
 40
3.001187902201336
 40
3.947451476436856
 40
4.958320636412363
 40
6.009227151546397
 40
7.07145003194215
 40
8.115157614418312
 40
9.112349617119623
 40
10.03996348736736
 40
10.88344942639881
 40
11.64107703948401
 40
12.32854332467632
 40
12.57810921369539
 40
12.82503979444376
 40
12.82503979444376
 40
12.82503979444376
 40
12.82503979444376
 10
-18.87239113338502
 20
128.7983610067644
 30
0.0
 10
-19.05863388158231
 20
128.9173691697902
 30
0.0
 10
-19.4439700952758
 20
129.1635970567079
 30
0.0
 10
-19.8440631989291
 20
129.7746172279756
 30
0.0
 10
-20.10014498675496
 20
130.5174426777434
 30
0.0
 10
-20.19699522158712
 20
131.3815226670943
 30
0.0
 10
-20.13722291133372
 20
132.3239161075381
 30
0.0
 10
-19.92338296769028
 20
133.3071123754655
 30
0.0
 10
-19.56536504804003
 20
134.2881382216717
 30
0.0
 10
-19.07876460888242
 20
135.224456917459
 30
0.0
 10
-18.48486496638012
 20
136.0750996450765
 30
0.0
 10
-17.80938632086447
 20
136.8029591769383
 30
0.0
 10
-17.08100239353241
 20
137.376597404236
 30
0.0
 10
-16.32928396080936
 20
137.7703691865352
 30
0.0
 10
-15.58343362802646
 20
137.9661997137942
 30
0.0
 10
-15.00907140478702
 20
137.9471500359448
 30
0.0
 10
-14.62634185477029
 20
137.8449981468831
 30
0.0
 10
-14.47535025742322
 20
137.7766337091171
 30
0.0
 10
-14.40025517838544
 20
137.7426329167636
 30
0.0
 11
-18.87239113338502
 21
128.7983610067644
 31
0.0
 11
-19.40054149644913
 21
129.1886391812284
 31
0.0
 11
-19.80388338203803
 21
129.7632191698374
 31
0.0
 11
-20.06420436312672
 21
130.4961589073766
 31
0.0
 11
-20.1697515232898
 21
131.3543640421851
 31
0.0
 11
-20.11575819013551
 21
132.2990859418645
 31
0.0
 11
-19.9046633058027
 21
133.2876684616032
 31
0.0
 11
-19.54599712650408
 21
134.2754756579816
 31
0.0
 11
-19.05595493652893
 21
135.2179066049048
 31
0.0
 11
-18.45666212427107
 21
136.0724085879855
 31
0.0
 11
-17.77517836066937
 21
136.8004001869344
 31
0.0
 11
-17.04227328544172
 21
137.3690104589258
 31
0.0
 11
-16.29103897158002
 21
137.7525668869477
 31
0.0
 11
-15.55539484474655
 21
137.9337499900868
 31
0.0
 11
-14.86855620291886
 21
137.9043804382472
 31
0.0
 11
-14.62789190787883
 21
137.8383211325308
 31
0.0
 11
-14.40025517838544
 21
137.7426329167636
 31
0.0
  0
SPLINE
  5
1BF
330
1F
100
AcDbEntity
  8
0
  6
Continuous
 62
     7
100
AcDbSpline
210
0.0
220
0.0
230
1.0
 70
     8
 71
     3
 72
    11
 73
     7
 74
     5
 42
0.000000001
 43
0.0000000001
 44
0.00000001
 40
0.0
 40
0.0
 40
0.0
 40
0.0
 40
0.056439446759026
 40
0.1128788944484145
 40
0.169318343012748
 40
0.225757792402196
 40
0.225757792402196
 40
0.225757792402196
 40
0.225757792402196
 10
-8.864793829059096
 20
127.1322317668243
 30
0.0
 10
-8.863381622550438
 20
127.1134716963273
 30
0.0
 10
-8.860557208995528
 20
127.0759515550629
 30
0.0
 10
-8.856320587143033
 20
127.0196713428327
 30
0.0
 10
-8.85208396379451
 20
126.9633911298358
 30
0.0
 10
-8.84925954729146
 20
126.9258709876216
 30
0.0
 10
-8.847847338810034
 20
126.9071109163938
 30
0.0
 11
-8.864793829059096
 21
127.1322317668243
 31
0.0
 11
-8.86055720914985
 21
127.0759515553623
 31
0.0
 11
-8.856320587400624
 21
127.0196713431058
 31
0.0
 11
-8.852083963921142
 21
126.9633911301021
 31
0.0
 11
-8.847847338810034
 21
126.9071109163938
 31
0.0
  0
SPLINE
  5
1C0
330
1F
100
AcDbEntity
  8
0
  6
Continuous
 62
     7
100
AcDbSpline
210
0.0
220
0.0
230
1.0
 70
     8
 71
     3
 72
     9
 73
     5
 74
     3
 42
0.000000001
 43
0.0000000001
 44
0.00000001
 40
0.0
 40
0.0
 40
0.0
 40
0.0
 40
0.0419892406772458
 40
0.083978475394882
 40
0.083978475394882
 40
0.083978475394882
 40
0.083978475394882
 10
-8.924944304890886
 20
126.9404041912519
 30
0.0
 10
-8.912094810759235
 20
126.9348553091053
 30
0.0
 10
-8.886395823192652
 20
126.9237575482093
 30
0.0
 10
-8.860696833372
 20
126.9126597925331
 30
0.0
 10
-8.847847338810034
 20
126.9071109163938
 30
0.0
 11
-8.924944304890886
 21
126.9404041912519
 31
0.0
 11
-8.886395821368898
 21
126.9237575474218
 31
0.0
 11
-8.847847338810034
 21
126.9071109163938
 31
0.0
  0
SPLINE
  5
1C1
330
1F
100
AcDbEntity
  8
0
  6
Continuous
 62
     7
100
AcDbSpline
210
0.0
220
0.0
230
1.0
 70
     8
 71
     3
 72
    11
 73
     7
 74
     5
 42
0.000000001
 43
0.0000000001
 44
0.00000001
 40
0.0
 40
0.0
 40
0.0
 40
0.0
 40
0.056334820271409
 40
0.112669639793118
 40
0.1690044585198914
 40
0.2253392764011184
 40
0.2253392764011184
 40
0.2253392764011184
 40
0.2253392764011184
 10
-8.91942678649221
 20
126.8713211748409
 30
0.0
 10
-8.920921808043513
 20
126.8900398410151
 30
0.0
 10
-8.923911850631299
 20
126.9274771731539
 30
0.0
 10
-8.928396912933582
 20
126.983633171097
 30
0.0
 10
-8.93288197356057
 20
127.0397891683747
 30
0.0
 10
-8.935872012840072
 20
127.0772264997126
 30
0.0
 10
-8.937367032178777
 20
127.0959451652642
 30
0.0
 11
-8.91942678649221
 21
126.8713211748409
 31
0.0
 11
-8.923911850770647
 21
126.9274771733934
 31
0.0
 11
-8.928396913220325
 21
126.9836331713399
 31
0.0
 11
-8.932881973730698
 21
127.0397891686438
 31
0.0
 11
-8.937367032178777
 21
127.0959451652642
 31
0.0
  0
SPLINE
  5
1C2
330
1F
100
AcDbEntity
  8
0
  6
Continuous
 62
     7
100
AcDbSpline
210
0.0
220
0.0
230
1.0
 70
     8
 71
     3
 72
    11
 73
     7
 74
     5
 42
0.000000001
 43
0.0000000001
 44
0.00000001
 40
0.0
 40
0.0
 40
0.0
 40
0.0
 40
0.0721954491453262
 40
0.1455042349314062
 40
0.2174832190272719
 40
0.2910065393305442
 40
0.2910065393305442
 40
0.2910065393305442
 40
0.2910065393305442
 10
-9.106026603003116
 20
127.3330922818292
 30
0.0
 10
-9.092080616702427
 20
127.3134800178816
 30
0.0
 10
-9.063973568712985
 20
127.2739530551129
 30
0.0
 10
-9.021958787128986
 20
127.2148751651327
 30
0.0
 10
-8.979685218901178
 20
127.155438175073
 30
0.0
 10
-8.95157255947298
 20
127.1159159928186
 30
0.0
 10
-8.937367032178777
 20
127.0959451652642
 30
0.0
 11
-9.106026603003116
 21
127.3330922818292
 31
0.0
 11
-9.064188054397906
 21
127.2742559093378
 31
0.0
 11
-9.021701513720387
 21
127.2145141991618
 31
0.0
 11
-8.979983073079072
 21
127.1558580327171
 31
0.0
 11
-8.937367032178777
 21
127.0959451652642
 31
0.0
  0
SPLINE
  5
1C3
330
1F
100
AcDbEntity
  8
0
  6
Continuous
 62
     7
100
AcDbSpline
210
0.0
220
0.0
230
1.0
 70
     8
 71
     3
 72
    11
 73
     7
 74
     5
 42
0.000000001
 43
0.0000000001
 44
0.00000001
 40
0.0
 40
0.0
 40
0.0
 40
0.0
 40
0.0728774128637142
 40
0.1443247215832537
 40
0.2172064299741747
 40
0.2886523329329396
 40
0.2886523329329396
 40
0.2886523329329396
 40
0.2886523329329396
 10
-8.864793829059096
 20
127.1322317668243
 30
0.0
 10
-8.877524814218903
 20
127.1529210433245
 30
0.0
 10
-8.90273694636097
 20
127.193893609758
 30
0.0
 10
-8.940677847964647
 20
127.2555584972272
 30
0.0
 10
-8.978366589340105
 20
127.3168182766098
 30
0.0
 10
-9.003573624324906
 20
127.3577951100243
 30
0.0
 10
-9.016051752661355
 20
127.3780797070003
 30
0.0
 11
-8.864793829059096
 21
127.1322317668243
 31
0.0
 11
-8.902986278794934
 21
127.1942999075158
 31
0.0
 11
-8.94042695462204
 21
127.2551514787111
 31
0.0
 11
-8.978616818250105
 21
127.3172262540559
 31
0.0
 11
-9.016051752661355
 21
127.3780797070003
 31
0.0
  0
SPLINE
  5
1C4
330
1F
100
AcDbEntity
  8
0
  6
Continuous
 62
     7
100
AcDbSpline
210
0.0
220
0.0
230
1.0
 70
     8
 71
     3
 72
    13
 73
     9
 74
     7
 42
0.000000001
 43
0.0000000001
 44
0.00000001
 40
0.0
 40
0.0
 40
0.0
 40
0.0
 40
0.2067906374586699
 40
0.4271849222931364
 40
0.835368885451647
 40
1.279751685303174
 40
1.754011866099719
 40
2.249794605684063
 40
2.249794605684063
 40
2.249794605684063
 40
2.249794605684063
 10
-10.53764063339946
 20
127.4786896846315
 30
0.0
 10
-10.56262181318645
 20
127.5430087518514
 30
0.0
 10
-10.61422753678928
 20
127.6758780979095
 30
0.0
 10
-10.67901113367637
 20
127.9474188014792
 30
0.0
 10
-10.72090290226834
 20
128.3037729466886
 30
0.0
 10
-10.7135107708489
 20
128.7469433142417
 30
0.0
 10
-10.6565517825602
 20
129.2161773730857
 30
0.0
 10
-10.57785967419713
 20
129.5300718504236
 30
0.0
 10
-10.53764063339916
 20
129.6905013109781
 30
0.0
 11
-10.53764063339946
 21
127.4786896846315
 31
0.0
 11
-10.60825439748638
 21
127.6730503415065
 31
0.0
 11
-10.66147218579095
 21
127.8869229889674
 31
0.0
 11
-10.71077075143312
 21
128.2921189945217
 31
0.0
 11
-10.70621821397329
 21
128.73647847491
 31
0.0
 11
-10.64794614151937
 21
129.207145111377
 31
0.0
 11
-10.53764063339916
 21
129.6905013109781
 31
0.0
  0
SPLINE
  5
1C5
330
1F
100
AcDbEntity
  8
0
  6
Continuous
 62
     2
100
AcDbSpline
210
0.0
220
0.0
230
1.0
 70
     8
 71
     3
 72
     9
 73
     5
 74
     3
 42
0.000000001
 43
0.0000000001
 44
0.00000001
 40
0.0
 40
0.0
 40
0.0
 40
0.0
 40
0.1340133688410712
 40
0.2661397689945217
 40
0.2661397689945217
 40
0.2661397689945217
 40
0.2661397689945217
 10
-8.247704315687244
 20
131.4520766448001
 30
0.0
 10
-8.27686900867464
 20
131.4861142820864
 30
0.0
 10
-8.334787756730355
 20
131.5537102773354
 30
0.0
 10
-8.40608626936143
 20
131.6069964388406
 30
0.0
 10
-8.44148277387135
 20
131.6334506089078
 30
0.0
 11
-8.247704315687244
 21
131.4520766448001
 31
0.0
 11
-8.338590943542492
 21
131.5505611821779
 31
0.0
 11
-8.44148277387135
 21
131.6334506089078
 31
0.0
  0
SPLINE
  5
1C6
330
1F
100
AcDbEntity
  8
0
  6
Continuous
 62
     7
100
AcDbSpline
210
0.0
220
0.0
230
1.0
 70
     8
 71
     3
 72
    11
 73
     7
 74
     5
 42
0.000000001
 43
0.0000000001
 44
0.00000001
 40
0.0
 40
0.0
 40
0.0
 40
0.0
 40
0.0009870668162004
 40
0.0019745632101304
 40
0.0440963083982856
 40
0.0868815108785604
 40
0.0868815108785604
 40
0.0868815108785604
 40
0.0868815108785604
 10
-8.942185746433864
 20
131.6703232775906
 30
0.0
 10
-8.941892678526518
 20
131.6704728331228
 30
0.0
 10
-8.941306414688572
 20
131.6707720083374
 30
0.0
 10
-8.92821383870459
 20
131.6774531966992
 30
0.0
 10
-8.902710398936616
 20
131.6904661245188
 30
0.0
 10
-8.87749835469624
 20
131.7033259033451
 30
0.0
 10
-8.864793828473779
 20
131.709806032594
 30
0.0
 11
-8.942185746433864
 21
131.6703232775906
 31
0.0
 11
-8.941306542452612
 21
131.6707719436791
 31
0.0
 11
-8.940426954622858
 21
131.6712208026526
 31
0.0
 11
-8.902906949637874
 21
131.6903647480082
 31
0.0
 11
-8.864793828473779
 21
131.709806032594
 31
0.0
  0
SPLINE
  5
1C7
330
1F
100
AcDbEntity
  8
0
  6
Continuous
 62
     7
100
AcDbSpline
210
0.0
220
0.0
230
1.0
 70
     8
 71
     3
 72
    11
 73
     7
 74
     5
 42
0.000000001
 43
0.0000000001
 44
0.00000001
 40
0.0
 40
0.0
 40
0.0
 40
0.0
 40
0.0519681339050801
 40
0.1039362687974539
 40
0.1559044047813106
 40
0.207872542144629
 40
0.207872542144629
 40
0.207872542144629
 40
0.207872542144629
 10
-8.847847337525998
 20
131.916986654811
 30
0.0
 10
-8.84925954612549
 20
131.8997216035885
 30
0.0
 10
-8.85208396290388
 20
131.8651915007791
 30
0.0
 10
-8.856320586581035
 20
131.8133963459128
 30
0.0
 10
-8.860557208627423
 20
131.7616011897566
 30
0.0
 10
-8.863381622079968
 20
131.7270710851534
 30
0.0
 10
-8.864793828473779
 20
131.709806032594
 30
0.0
 11
-8.847847337525998
 21
131.916986654811
 31
0.0
 11
-8.852083962958332
 21
131.8651915011138
 31
0.0
 11
-8.856320586759033
 21
131.8133963462925
 31
0.0
 11
-8.860557208756214
 21
131.7616011902285
 31
0.0
 11
-8.864793828473779
 21
131.709806032594
 31
0.0
  0
SPLINE
  5
1C8
330
1F
100
AcDbEntity
  8
0
  6
Continuous
 62
     7
100
AcDbSpline
210
0.0
220
0.0
230
1.0
 70
     8
 71
     3
 72
    11
 73
     7
 74
     5
 42
0.000000001
 43
0.0000000001
 44
0.00000001
 40
0.0
 40
0.0
 40
0.0
 40
0.0
 40
0.0521127333977383
 40
0.1042254658206399
 40
0.156338197326908
 40
0.2084509279687266
 40
0.2084509279687266
 40
0.2084509279687266
 40
0.2084509279687266
 10
-8.937367032179125
 20
131.6735194314376
 30
0.0
 10
-8.935872012964689
 20
131.6908258889354
 30
0.0
 10
-8.932881973940201
 20
131.7254388035535
 30
0.0
 10
-8.928396913641334
 20
131.7773581748586
 30
0.0
 10
-8.923911851687485
 20
131.8292775450987
 30
0.0
 10
-8.920921809300243
 20
131.8638904581975
 30
0.0
 10
-8.9194267878528
 20
131.8811969145804
 30
0.0
 11
-8.937367032179125
 21
131.6735194314376
 31
0.0
 11
-8.93288197407111
 21
131.7254388038909
 31
0.0
 11
-8.928396913900798
 21
131.7773581751877
 31
0.0
 11
-8.923911851791186
 21
131.8292775453968
 31
0.0
 11
-8.9194267878528
 21
131.8811969145804
 31
0.0
  0
SPLINE
  5
1C9
330
1F
100
AcDbEntity
  8
0
  6
Continuous
 62
     2
100
AcDbSpline
210
0.0
220
0.0
230
1.0
 70
     8
 71
     3
 72
    11
 73
     7
 74
     5
 42
0.000000001
 43
0.0000000001
 44
0.00000001
 40
0.0
 40
0.0
 40
0.0
 40
0.0
 40
0.4646695902732682
 40
0.9591926903459832
 40
1.475303684756685
 40
2.002103405666522
 40
2.002103405666522
 40
2.002103405666522
 40
2.002103405666522
 10
-9.50440083796886
 20
127.8444658798098
 30
0.0
 10
-9.37469911563803
 20
127.9299873949186
 30
0.0
 10
-9.106962766089376
 20
128.1065249165346
 30
0.0
 10
-8.767535384671346
 20
128.4671522862864
 30
0.0
 10
-8.467468213913646
 20
128.8853364847998
 30
0.0
 10
-8.321457761301847
 20
129.2016533711553
 30
0.0
 10
-8.247704315687002
 20
129.36143277375
 30
0.0
 11
-9.50440083796886
 21
127.8444658798098
 31
0.0
 11
-9.126337881308563
 21
128.1146255177789
 31
0.0
 11
-8.780946984276213
 21
128.4685439076292
 31
0.0
 11
-8.48364568456441
 21
128.8904236266846
 31
0.0
 11
-8.247704315687002
 21
129.36143277375
 31
0.0
  0
SPLINE
  5
1CA
330
1F
100
AcDbEntity
  8
0
  6
Continuous
 62
     7
100
AcDbSpline
210
0.0
220
0.0
230
1.0
 70
     8
 71
     3
 72
    15
 73
    11
 74
     9
 42
0.000000001
 43
0.0000000001
 44
0.00000001
 40
0.0
 40
0.0
 40
0.0
 40
0.0
 40
0.0877033240330287
 40
0.1897001964317985
 40
0.2810180245448263
 40
0.3692882308821517
 40
0.4470192651564933
 40
0.5351548185589062
 40
0.6057638338619727
 40
0.6851000446853438
 40
0.6851000446853438
 40
0.6851000446853438
 40
0.6851000446853438
 10
-9.016051752661355
 20
127.3780797070003
 30
0.0
 10
-9.031754041526222
 20
127.402747200916
 30
0.0
 10
-9.065717730330398
 20
127.4561023930874
 30
0.0
 10
-9.121796500745425
 20
127.5312581231092
 30
0.0
 10
-9.182512344126419
 20
127.6029083519992
 30
0.0
 10
-9.242365346404112
 20
127.6644476560148
 30
0.0
 10
-9.305515318055518
 20
127.7210208685605
 30
0.0
 10
-9.368334006383463
 20
127.7687657976519
 30
0.0
 10
-9.43526592118608
 20
127.8117052434001
 30
0.0
 10
-9.480478697107975
 20
127.8331300132901
 30
0.0
 10
-9.50440083796886
 20
127.8444658798098
 30
0.0
 11
-9.016051752661355
 21
127.3780797070003
 31
0.0
 11
-9.063990535876256
 21
127.451521832327
 31
0.0
 11
-9.124792159744786
 21
127.5334152035602
 31
0.0
 11
-9.18395793563294
 21
127.6029735004236
 31
0.0
 11
-9.24556240834464
 21
127.6661915233212
 31
0.0
 11
-9.303554912998328
 21
127.7179504195275
 31
0.0
 11
-9.373747604204347
 21
127.7712501597235
 31
0.0
 11
-9.433490639802699
 21
127.8088852898635
 31
0.0
 11
-9.50440083796886
 21
127.8444658798098
 31
0.0
  0
SPLINE
  5
1CB
330
1F
100
AcDbEntity
  8
0
  6
Continuous
 62
     7
100
AcDbSpline
210
0.0
220
0.0
230
1.0
 70
     8
 71
     3
 72
    20
 73
    16
 74
    14
 42
0.000000001
 43
0.0000000001
 44
0.00000001
 40
0.0
 40
0.0
 40
0.0
 40
0.0
 40
0.0260506195974804
 40
0.055671236136342
 40
0.0784960117849325
 40
0.1066236682505285
 40
0.14041765188623
 40
0.1944668703572308
 40
0.2546350727139698
 40
0.3211416916272997
 40
0.3941901869653086
 40
0.4739803969628383
 40
0.5607163173843354
 40
0.5641401368248783
 40
0.567553871130159
 40
0.567553871130159
 40
0.567553871130159
 40
0.567553871130159
 10
-8.44148277387135
 20
131.6334506089078
 30
0.0
 10
-8.448797314992389
 20
131.6381462075808
 30
0.0
 10
-8.464428796215268
 20
131.648180878599
 30
0.0
 10
-8.488318586012504
 20
131.6590681267994
 30
0.0
 10
-8.513588550524846
 20
131.6681939900934
 30
0.0
 10
-8.540845313529207
 20
131.6757380021948
 30
0.0
 10
-8.578804457774957
 20
131.6832232819976
 30
0.0
 10
-8.627947352286943
 20
131.6884518749977
 30
0.0
 10
-8.688247443459284
 20
131.6894670566815
 30
0.0
 10
-8.754755657062253
 20
131.6853167140227
 30
0.0
 10
-8.827274264222533
 20
131.6755619771554
 30
0.0
 10
-8.90560596279053
 20
131.6597644797814
 30
0.0
 10
-8.960394876746946
 20
131.6452167395773
 30
0.0
 10
-8.990305236314814
 20
131.6363707482634
 30
0.0
 10
-8.99248911157805
 20
131.6357185328301
 30
0.0
 10
-8.993579438306227
 20
131.6353929049781
 30
0.0
 11
-8.44148277387135
 21
131.6334506089078
 31
0.0
 11
-8.463713626202074
 21
131.6470308968511
 31
0.0
 11
-8.490542185173624
 21
131.6595851679369
 31
0.0
 11
-8.512007218488293
 21
131.6673454935727
 31
0.0
 11
-8.539095563280194
 21
131.6749208855573
 31
0.0
 11
-8.57223576489423
 21
131.6815360434723
 31
0.0
 11
-8.62595760805157
 21
131.6874758680449
 31
0.0
 11
-8.686113819203802
 21
131.6886770291495
 31
0.0
 11
-8.752501525415365
 21
131.6847017569767
 31
0.0
 11
-8.824917853750701
 21
131.6751122817166
 31
0.0
 11
-8.903159931274253
 21
131.6594708335597
 31
0.0
 11
-8.98702488505046
 21
131.637339642696
 31
0.0
 11
-8.990308038659087
 21
131.6363683322061
 31
0.0
 11
-8.993579438306227
 21
131.6353929049781
 31
0.0
  0
SPLINE
  5
1CC
330
1F
100
AcDbEntity
  8
0
  6
Continuous
 62
     7
100
AcDbSpline
210
0.0
220
0.0
230
1.0
 70
     8
 71
     3
 72
    11
 73
     7
 74
     5
 42
0.000000001
 43
0.0000000001
 44
0.00000001
 40
0.0
 40
0.0
 40
0.0
 40
0.0
 40
0.5202482743657921
 40
1.11354313651423
 40
1.769716360713465
 40
2.470390116193212
 40
2.470390116193212
 40
2.470390116193212
 40
2.470390116193212
 10
-10.67279046149211
 20
127.2850690294947
 30
0.0
 10
-10.72941165653264
 20
127.4497347932228
 30
0.0
 10
-10.85060405359222
 20
127.8021865787753
 30
0.0
 10
-10.88433555950267
 20
128.3968575321631
 30
0.0
 10
-10.83757017288176
 20
129.046960060008
 30
0.0
 10
-10.7289050013255
 20
129.4869007118827
 30
0.0
 10
-10.6727904614918
 20
129.7140854065173
 30
0.0
 11
-10.67279046149211
 21
127.2850690294947
 31
0.0
 11
-10.82083340628529
 21
127.7838089969431
 31
0.0
 11
-10.87101164472447
 21
128.3749781276966
 31
0.0
 11
-10.82083340628512
 21
129.0292299498244
 31
0.0
 11
-10.6727904614918
 21
129.7140854065173
 31
0.0
  0
SPLINE
  5
1CD
330
1F
100
AcDbEntity
  8
0
  6
Continuous
 62
     2
100
AcDbSpline
210
0.0
220
0.0
230
1.0
 70
     8
 71
     3
 72
    11
 73
     7
 74
     5
 42
0.000000001
 43
0.0000000001
 44
0.00000001
 40
0.0
 40
0.0
 40
0.0
 40
0.0
 40
0.4184908971595498
 40
0.8042643278927131
 40
1.180920634096254
 40
1.575343532687096
 40
1.575343532687096
 40
1.575343532687096
 40
1.575343532687096
 10
-9.106026603003116
 20
127.3330922818292
 30
0.0
 10
-9.238636751459143
 20
127.2863806096495
 30
0.0
 10
-9.493489638649512
 20
127.1966091806746
 30
0.0
 10
-9.895459421368855
 20
127.2120227668948
 30
0.0
 10
-10.26527403218826
 20
127.3533153655185
 30
0.0
 10
-10.44884927268298
 20
127.5367944655736
 30
0.0
 10
-10.54275178545435
 20
127.6306478107815
 30
0.0
 11
-9.106026603003116
 21
127.3330922818292
 31
0.0
 11
-9.508976479661538
 21
127.220105427612
 31
0.0
 11
-9.89451958980583
 21
127.2334340539905
 31
0.0
 11
-10.24458153824185
 21
127.3724542236397
 31
0.0
 11
-10.54275178545435
 21
127.6306478107815
 31
0.0
  0
SPLINE
  5
1CE
330
1F
100
AcDbEntity
  8
0
  6
Continuous
 62
     7
100
AcDbSpline
210
0.0
220
0.0
230
1.0
 70
     8
 71
     3
 72
    11
 73
     7
 74
     5
 42
0.000000001
 43
0.0000000001
 44
0.00000001
 40
0.0
 40
0.0
 40
0.0
 40
0.0
 40
0.4569232762821289
 40
0.8774031144111869
 40
1.287812349800082
 40
1.718243549918586
 40
1.718243549918586
 40
1.718243549918586
 40
1.718243549918586
 10
-8.937367032178777
 20
127.0959451652642
 30
0.0
 10
-9.08182815877362
 20
127.0439528037235
 30
0.0
 10
-9.359228437157547
 20
126.9441149184229
 30
0.0
 10
-9.79787811983569
 20
126.9597312768224
 30
0.0
 10
-10.20096856107301
 20
127.1149610102266
 30
0.0
 10
-10.39964856538129
 20
127.3166246579228
 30
0.0
 10
-10.50135403188947
 20
127.419857479406
 30
0.0
 11
-8.937367032178777
 21
127.0959451652642
 31
0.0
 11
-9.376569639429354
 21
126.9699294850557
 31
0.0
 11
-9.796831703061375
 21
126.9834607291696
 31
0.0
 11
-10.17788531411772
 21
127.1358873952565
 31
0.0
 11
-10.50135403188947
 21
127.419857479406
 31
0.0
  0
SPLINE
  5
1CF
330
1F
100
AcDbEntity
  8
0
  6
Continuous
 62
     7
100
AcDbSpline
210
0.0
220
0.0
230
1.0
 70
     8
 71
     3
 72
    11
 73
     7
 74
     5
 42
0.000000001
 43
0.0000000001
 44
0.00000001
 40
0.0
 40
0.0
 40
0.0
 40
0.0
 40
0.0589373008990947
 40
0.1178746005346236
 40
0.1768118968979257
 40
0.2357491772495933
 40
0.2357491772495933
 40
0.2357491772495933
 40
0.2357491772495933
 10
-10.50135403188947
 20
127.419857479406
 30
0.0
 10
-10.51265792620824
 20
127.4037895569228
 30
0.0
 10
-10.53526571403172
 20
127.3716537118986
 30
0.0
 10
-10.56917739370419
 20
127.3234499445023
 30
0.0
 10
-10.60308906852317
 20
127.2752461820658
 30
0.0
 10
-10.62569684995291
 20
127.2431103422515
 30
0.0
 10
-10.63700073911398
 20
127.227042424514
 30
0.0
 11
-10.50135403188947
 21
127.419857479406
 31
0.0
 11
-10.53526571449255
 21
127.3716537117078
 31
0.0
 11
-10.569177394697
 21
127.3234499438671
 31
0.0
 11
-10.60308907163427
 21
127.2752461777288
 31
0.0
 11
-10.63700073911398
 21
127.227042424514
 31
0.0
  0
SPLINE
  5
1D0
330
1F
100
AcDbEntity
  8
0
  6
Continuous
 62
     7
100
AcDbSpline
210
0.0
220
0.0
230
1.0
 70
     8
 71
     3
 72
    11
 73
     7
 74
     5
 42
0.000000001
 43
0.0000000001
 44
0.00000001
 40
0.0
 40
0.0
 40
0.0
 40
0.0
 40
0.3015128997552981
 40
0.611245427990715
 40
0.9262745536249801
 40
1.243489044389799
 40
1.243489044389799
 40
1.243489044389799
 40
1.243489044389799
 10
-10.67592270481349
 20
129.0291230262667
 30
0.0
 10
-10.60825795787334
 20
129.1035280295428
 30
0.0
 10
-10.47108384756734
 20
129.2543664218279
 30
0.0
 10
-10.28907694928478
 20
129.5043657159095
 30
0.0
 10
-10.12166060533014
 20
129.770475475093
 30
0.0
 10
-10.0277840413566
 20
129.9592973947619
 30
0.0
 10
-9.980683522727809
 20
130.0540346918267
 30
0.0
 11
-10.67592270481349
 21
129.0291230262667
 31
0.0
 11
-10.47708157112252
 21
129.255777460485
 31
0.0
 11
-10.29299905619364
 21
129.5048715537216
 31
0.0
 11
-10.12663993923336
 21
129.7723935055467
 31
0.0
 11
-9.980683522727809
 21
130.0540346918267
 31
0.0
  0
SPLINE
  5
1D1
330
1F
100
AcDbEntity
  8
0
  6
Continuous
 62
     7
100
AcDbSpline
210
0.0
220
0.0
230
1.0
 70
     8
 71
     3
 72
    11
 73
     7
 74
     5
 42
0.000000001
 43
0.0000000001
 44
0.00000001
 40
0.0
 40
0.0
 40
0.0
 40
0.0
 40
0.6582444751475879
 40
1.304457217986766
 40
1.916804969891475
 40
2.476756459278119
 40
2.476756459278119
 40
2.476756459278119
 40
2.476756459278119
 10
-10.50135403189038
 20
129.7856201177135
 30
0.0
 10
-10.3982105138374
 20
129.9796201791695
 30
0.0
 10
-10.19380877526753
 20
130.3640742613258
 30
0.0
 10
-9.812444386897464
 20
130.8786986733574
 30
0.0
 10
-9.401994812292294
 20
131.3286872973664
 30
0.0
 10
-9.087558351621018
 20
131.5620521611602
 30
0.0
 10
-8.937367032179125
 20
131.6735194314376
 30
0.0
 11
-10.50135403189038
 21
129.7856201177135
 31
0.0
 11
-10.17788531411849
 21
130.3589034487314
 31
0.0
 11
-9.796831703062004
 21
130.8808124984041
 31
0.0
 11
-9.37656963942984
 21
131.3261770336046
 31
0.0
 11
-8.937367032179125
 21
131.6735194314376
 31
0.0
  0
SPLINE
  5
1D2
330
1F
100
AcDbEntity
  8
0
  6
Continuous
 62
     7
100
AcDbSpline
210
0.0
220
0.0
230
1.0
 70
     8
 71
     3
 72
    11
 73
     7
 74
     5
 42
0.000000001
 43
0.0000000001
 44
0.00000001
 40
0.0
 40
0.0
 40
0.0
 40
0.0
 40
0.7235478969226623
 40
1.434049561959692
 40
2.106786563260823
 40
2.720833601298795
 40
2.720833601298795
 40
2.720833601298795
 40
2.720833601298795
 10
-10.63700073911492
 20
129.807901733876
 30
0.0
 10
-10.5242363058721
 20
130.0214837414473
 30
0.0
 10
-10.30074067254548
 20
130.4447966697371
 30
0.0
 10
-9.881982294714966
 20
131.0107792512467
 30
0.0
 10
-9.430831301589855
 20
131.5048375191606
 30
0.0
 10
-9.084631595629643
 20
131.7596172711281
 30
0.0
 10
-8.9194267878528
 20
131.8811969145804
 30
0.0
 11
-10.63700073911492
 21
129.807901733876
 31
0.0
 11
-10.28303990010281
 21
130.4389590082158
 31
0.0
 11
-9.86458010548148
 21
131.0131575959151
 31
0.0
 11
-9.40239429895646
 21
131.5019922872997
 31
0.0
 11
-8.9194267878528
 21
131.8811969145804
 31
0.0
  0
SPLINE
  5
1D3
330
1F
100
AcDbEntity
  8
0
  6
Continuous
 62
     7
100
AcDbSpline
210
0.0
220
0.0
230
1.0
 70
     8
 71
     3
 72
    11
 73
     7
 74
     5
 42
0.000000001
 43
0.0000000001
 44
0.00000001
 40
0.0
 40
0.0
 40
0.0
 40
0.0
 40
0.1923284286081153
 40
0.3846568572035539
 40
0.851033766135114
 40
1.317410675651635
 40
1.317410675651635
 40
1.317410675651635
 40
1.317410675651635
 10
-10.71385826354999
 20
128.3667527971527
 30
0.0
 10
-10.65500214260125
 20
128.3413366218729
 30
0.0
 10
-10.53728990070433
 20
128.2905042713228
 30
0.0
 10
-10.2768575421871
 20
128.1780402766714
 30
0.0
 10
-9.932561187858553
 20
128.0293608130304
 30
0.0
 10
-9.647120954616897
 20
127.9060975243386
 30
0.0
 10
-9.50440083796886
 20
127.8444658798098
 30
0.0
 11
-10.71385826354999
 21
128.3667527971527
 31
0.0
 11
-10.5372899007023
 21
128.2905042713168
 31
0.0
 11
-10.36072153785667
 21
128.2142557455081
 31
0.0
 11
-9.93256118800602
 21
128.0293608131807
 31
0.0
 11
-9.50440083796886
 21
127.8444658798098
 31
0.0
  0
SPLINE
  5
1D4
330
1F
100
AcDbEntity
  8
0
  6
Continuous
 62
     7
100
AcDbSpline
210
0.0
220
0.0
230
1.0
 70
     8
 71
     3
 72
    11
 73
     7
 74
     5
 42
0.000000001
 43
0.0000000001
 44
0.00000001
 40
0.0
 40
0.0
 40
0.0
 40
0.0
 40
0.7085333259408486
 40
1.41706665194414
 40
2.12559997801047
 40
2.834133304136758
 40
2.834133304136758
 40
2.834133304136758
 40
2.834133304136758
 10
-11.1816741382213
 20
133.5249555755223
 30
0.0
 10
-10.98718857148753
 20
133.3909581655312
 30
0.0
 10
-10.59821743802025
 20
133.1229633455118
 30
0.0
 10
-10.01476073784555
 20
132.7209711153894
 30
0.0
 10
-9.431304037672211
 20
132.318978885156
 30
0.0
 10
-9.042332904241078
 20
132.0509840649382
 30
0.0
 10
-8.847847337525998
 20
131.916986654811
 30
0.0
 11
-11.1816741382213
 21
133.5249555755223
 31
0.0
 11
-10.59821743803304
 21
133.12296334553
 31
0.0
 11
-10.01476073785416
 21
132.7209711154139
 31
0.0
 11
-9.431304037684306
 21
132.3189788851737
 31
0.0
 11
-8.847847337525998
 21
131.916986654811
 31
0.0
  0
SPLINE
  5
1D5
330
1F
100
AcDbEntity
  8
0
  6
Continuous
 62
     7
100
AcDbSpline
210
0.0
220
0.0
230
1.0
 70
     8
 71
     3
 72
    11
 73
     7
 74
     5
 42
0.000000001
 43
0.0000000001
 44
0.00000001
 40
0.0
 40
0.0
 40
0.0
 40
0.0
 40
0.73533864855495
 40
1.470677297159137
 40
2.220445994199878
 40
2.970214696182536
 40
2.970214696182536
 40
2.970214696182536
 40
2.970214696182536
 10
-11.51005567958794
 20
133.3340621136701
 30
0.0
 10
-11.2962675925799
 20
133.2141664123573
 30
0.0
 10
-10.86869141822174
 20
132.9743750103081
 30
0.0
 10
-10.22313184865391
 20
132.612335111891
 30
0.0
 10
-9.573376971070855
 20
132.2479424147186
 30
0.0
 10
-9.137410182190276
 20
132.0034454158713
 30
0.0
 10
-8.9194267878528
 20
131.8811969145804
 30
0.0
 11
-11.51005567958794
 21
133.3340621136701
 31
0.0
 11
-10.86869141860578
 21
132.9743750096569
 31
0.0
 11
-10.22732715763389
 21
132.6146879055247
 31
0.0
 11
-9.573376972229541
 21
132.2479424160204
 31
0.0
 11
-8.9194267878528
 21
131.8811969145804
 31
0.0
  0
SPLINE
  5
1D6
330
1F
100
AcDbEntity
  8
0
  6
Continuous
 62
     7
100
AcDbSpline
210
0.0
220
0.0
230
1.0
 70
     8
 71
     3
 72
    11
 73
     7
 74
     5
 42
0.000000001
 43
0.0000000001
 44
0.00000001
 40
0.0
 40
0.0
 40
0.0
 40
0.0
 40
0.6891003169682621
 40
1.378200627034147
 40
2.067300935918027
 40
2.756401244761298
 40
2.756401244761298
 40
2.756401244761298
 40
2.756401244761298
 10
-10.63700073911398
 20
127.227042424514
 30
0.0
 10
-10.85504247857009
 20
127.2992915656395
 30
0.0
 10
-11.29112595257898
 20
127.4437898553734
 30
0.0
 10
-11.94525115645229
 20
127.6605373066123
 30
0.0
 10
-12.59937635456449
 20
127.8772847666272
 30
0.0
 10
-13.03545981924807
 20
128.021783074641
 30
0.0
 10
-13.25350155187963
 20
128.0940322277518
 30
0.0
 11
-10.63700073911398
 21
127.227042424514
 31
0.0
 11
-11.29112595521284
 21
127.4437898547394
 31
0.0
 11
-11.94525115588614
 21
127.6605373095734
 31
0.0
 11
-12.59937635392328
 21
127.8772847686052
 31
0.0
 11
-13.25350155187963
 21
128.0940322277518
 31
0.0
  0
SPLINE
  5
1D7
330
1F
100
AcDbEntity
  8
0
  6
Continuous
 62
     7
100
AcDbSpline
210
0.0
220
0.0
230
1.0
 70
     8
 71
     3
 72
    13
 73
     9
 74
     7
 42
0.000000001
 43
0.0000000001
 44
0.00000001
 40
0.0
 40
0.0
 40
0.0
 40
0.0
 40
0.0473875211293021
 40
0.1017955455480995
 40
0.1331161773565939
 40
0.1692285806418646
 40
0.1975176852380253
 40
0.2265225351576118
 40
0.2265225351576118
 40
0.2265225351576118
 40
0.2265225351576118
 10
-10.44895991749227
 20
127.7180037665466
 30
0.0
 10
-10.46376921272851
 20
127.7235611902004
 30
0.0
 10
-10.49558180758987
 20
127.7354993890658
 30
0.0
 10
-10.53402868513745
 20
127.758096693986
 30
0.0
 10
-10.56714911359181
 20
127.7816093364348
 30
0.0
 10
-10.59182903166766
 20
127.8018802530302
 30
0.0
 10
-10.6148159290719
 20
127.8229010793058
 30
0.0
 10
-10.62815437271381
 20
127.8365741858389
 30
0.0
 10
-10.63490690466018
 20
127.8434961499905
 30
0.0
 11
-10.44895991749227
 21
127.7180037665466
 31
0.0
 11
-10.49286515046652
 21
127.7358337344374
 31
0.0
 11
-10.54011020566529
 21
127.7628177676105
 31
0.0
 11
-10.56564283008286
 21
127.7809579746316
 31
0.0
 11
-10.59360851913579
 21
127.8038058619932
 31
0.0
 11
-10.6144541831108
 21
127.8229299764422
 31
0.0
 11
-10.63490690466018
 21
127.8434961499905
 31
0.0
  0
SPLINE
  5
1D8
330
1F
100
AcDbEntity
  8
0
  6
Continuous
 62
     2
100
AcDbSpline
210
0.0
220
0.0
230
1.0
 70
     8
 71
     3
 72
     9
 73
     5
 74
     3
 42
0.000000001
 43
0.0000000001
 44
0.00000001
 40
0.0
 40
0.0
 40
0.0
 40
0.0
 40
0.1435657550327648
 40
0.2942100492771478
 40
0.2942100492771478
 40
0.2942100492771478
 40
0.2942100492771478
 10
-10.58773921060548
 20
127.7035868383823
 30
0.0
 10
-10.60528844573311
 20
127.7481583380171
 30
0.0
 10
-10.64125216578846
 20
127.8394989508822
 30
0.0
 10
-10.66600239493908
 20
127.93449915462
 30
0.0
 10
-10.67867523848362
 20
127.9831420869722
 30
0.0
 11
-10.58773921060548
 21
127.7035868383823
 31
0.0
 11
-10.63771680695339
 21
127.8381727440208
 31
0.0
 11
-10.67867523848362
 21
127.9831420869722
 31
0.0
  0
SPLINE
  5
1D9
330
1F
100
AcDbEntity
  8
0
  6
Continuous
 62
     7
100
AcDbSpline
210
0.0
220
0.0
230
1.0
 70
     8
 71
     3
 72
    11
 73
     7
 74
     5
 42
0.000000001
 43
0.0000000001
 44
0.00000001
 40
0.0
 40
0.0
 40
0.0
 40
0.0
 40
0.0540804248045195
 40
0.1130783928533726
 40
0.1503417209669264
 40
0.1915321035301537
 40
0.1915321035301537
 40
0.1915321035301537
 40
0.1915321035301537
 10
-10.62027488798649
 20
127.8064318464573
 30
0.0
 10
-10.6269556676309
 20
127.8231789478893
 30
0.0
 10
-10.64092469680912
 20
127.8581959734662
 30
0.0
 10
-10.65653516649705
 20
127.9058478829708
 30
0.0
 10
-10.66951422253294
 20
127.9497920441519
 30
0.0
 10
-10.67606769281972
 20
127.9751110936353
 30
0.0
 10
-10.67950843992863
 20
127.9884043015353
 30
0.0
 11
-10.62027488798649
 21
127.8064318464573
 31
0.0
 11
-10.63980767572465
 21
127.8568616250844
 31
0.0
 11
-10.65845180441602
 21
127.9128362332302
 31
0.0
 11
-10.66895061275179
 21
127.9485899836096
 31
0.0
 11
-10.67950843992863
 21
127.9884043015353
 31
0.0
  0
SPLINE
  5
1DA
330
1F
100
AcDbEntity
  8
0
  6
Continuous
 62
     7
100
AcDbSpline
210
0.0
220
0.0
230
1.0
 70
     8
 71
     3
 72
    11
 73
     7
 74
     5
 42
0.000000001
 43
0.0000000001
 44
0.00000001
 40
0.0
 40
0.0
 40
0.0
 40
0.0
 40
0.0570345449421073
 40
0.1152059392912124
 40
0.1722409343643592
 40
0.2304096301679572
 40
0.2304096301679572
 40
0.2304096301679572
 40
0.2304096301679572
 10
-10.58773921060548
 20
127.7035868383823
 30
0.0
 10
-10.58360823682361
 20
127.6850295552295
 30
0.0
 10
-10.5752639332889
 20
127.6475450964438
 30
0.0
 10
-10.56278218895139
 20
127.5915046407189
 30
0.0
 10
-10.55021417762576
 20
127.5350960853418
 30
0.0
 10
-10.54185922627795
 20
127.4976147662921
 30
0.0
 10
-10.53764063339946
 20
127.4786896846315
 30
0.0
 11
-10.58773921060548
 21
127.7035868383823
 31
0.0
 11
-10.57534523082035
 21
127.6479152245931
 31
0.0
 11
-10.56269915652069
 21
127.591135052654
 31
0.0
 11
-10.55029543789108
 21
127.5354651467151
 31
0.0
 11
-10.53764063339946
 21
127.4786896846315
 31
0.0
  0
SPLINE
  5
1DB
330
1F
100
AcDbEntity
  8
0
  6
Continuous
 62
     7
100
AcDbSpline
210
0.0
220
0.0
230
1.0
 70
     8
 71
     3
 72
    11
 73
     7
 74
     5
 42
0.000000001
 43
0.0000000001
 44
0.00000001
 40
0.0
 40
0.0
 40
0.0
 40
0.0
 40
0.0269220975247224
 40
0.0539248117206461
 40
0.0809022455790926
 40
0.1079996656918565
 40
0.1079996656918565
 40
0.1079996656918565
 40
0.1079996656918565
 10
-10.62027488798649
 20
127.8064318464573
 30
0.0
 10
-10.61692648109517
 20
127.7981040953485
 30
0.0
 10
-10.61021965469122
 20
127.7814236507386
 30
0.0
 10
-10.60160326143868
 20
127.7558574997793
 30
0.0
 10
-10.59394336926541
 20
127.7299283492092
 30
0.0
 10
-10.58981031557085
 20
127.712380322257
 30
0.0
 10
-10.58773921060548
 20
127.7035868383823
 30
0.0
 11
-10.62027488798649
 21
127.8064318464573
 31
0.0
 11
-10.61046985993786
 21
127.7813587379137
 31
0.0
 11
-10.60176302526251
 21
127.7557982678795
 31
0.0
 11
-10.59419754598079
 21
127.7299033748542
 31
0.0
 11
-10.58773921060548
 21
127.7035868383823
 31
0.0
  0
SPLINE
  5
1DC
330
1F
100
AcDbEntity
  8
0
  6
Continuous
 62
     7
100
AcDbSpline
210
0.0
220
0.0
230
1.0
 70
     8
 71
     3
 72
    11
 73
     7
 74
     5
 42
0.000000001
 43
0.0000000001
 44
0.00000001
 40
0.0
 40
0.0
 40
0.0
 40
0.0
 40
0.0590309181624937
 40
0.1180618644712177
 40
0.1770928159970033
 40
0.2361237686660976
 40
0.2361237686660976
 40
0.2361237686660976
 40
0.2361237686660976
 10
-10.67279046149211
 20
127.2850690294947
 30
0.0
 10
-10.66152798177313
 20
127.3012040784886
 30
0.0
 10
-10.63900301617154
 20
127.3334741836158
 30
0.0
 10
-10.60521556194594
 20
127.3818793450833
 30
0.0
 10
-10.57142809923198
 20
127.4302845146531
 30
0.0
 10
-10.54890312224177
 20
127.4625546279787
 30
0.0
 10
-10.53764063339946
 20
127.4786896846315
 30
0.0
 11
-10.67279046149211
 21
127.2850690294947
 31
0.0
 11
-10.63900302170624
 21
127.3334741760374
 31
0.0
 11
-10.60521556307106
 21
127.3818793437479
 31
0.0
 11
-10.57142809950902
 21
127.4302845143817
 31
0.0
 11
-10.53764063339946
 21
127.4786896846315
 31
0.0
  0
SPLINE
  5
1DD
330
1F
100
AcDbEntity
  8
0
  6
Continuous
 62
     7
100
AcDbSpline
210
0.0
220
0.0
230
1.0
 70
     8
 71
     3
 72
    11
 73
     7
 74
     5
 42
0.000000001
 43
0.0000000001
 44
0.00000001
 40
0.0
 40
0.0
 40
0.0
 40
0.0
 40
0.0542182222819267
 40
0.1074066499508791
 40
0.1616342665724593
 40
0.2148169878113552
 40
0.2148169878113552
 40
0.2148169878113552
 40
0.2148169878113552
 10
-10.50135403188947
 20
127.419857479406
 30
0.0
 10
-10.50483948502454
 20
127.437590938614
 30
0.0
 10
-10.51174417565652
 20
127.4727210391839
 30
0.0
 10
-10.52212928954438
 20
127.5255887786554
 30
0.0
 10
-10.53244388515287
 20
127.5781186068457
 30
0.0
 10
-10.53933817963734
 20
127.6132520018963
 30
0.0
 10
-10.54275178545435
 20
127.6306478107815
 30
0.0
 11
-10.50135403188947
 21
127.419857479406
 31
0.0
 11
-10.51180943363166
 21
127.4730580452099
 31
0.0
 11
-10.52206187697104
 21
127.5252490046144
 31
0.0
 11
-10.53250992660985
 21
127.5784605885347
 31
0.0
 11
-10.54275178545435
 21
127.6306478107815
 31
0.0
  0
SPLINE
  5
1DE
330
1F
100
AcDbEntity
  8
0
  6
Continuous
 62
     7
100
AcDbSpline
210
0.0
220
0.0
230
1.0
 70
     8
 71
     3
 72
    11
 73
     7
 74
     5
 42
0.000000001
 43
0.0000000001
 44
0.00000001
 40
0.0
 40
0.0
 40
0.0
 40
0.0
 40
0.0678002648822503
 40
0.1344264146035959
 40
0.180764262354798
 40
0.2269704889690529
 40
0.2269704889690529
 40
0.2269704889690529
 40
0.2269704889690529
 10
-10.54275178545435
 20
127.6306478107815
 30
0.0
 10
-10.54787675711887
 20
127.6526924235905
 30
0.0
 10
-10.55803796458475
 20
127.6963998927706
 30
0.0
 10
-10.58111852071688
 20
127.7523185701853
 30
0.0
 10
-10.60607793052428
 20
127.7992357287591
 30
0.0
 10
-10.62372693285692
 20
127.8245687507875
 30
0.0
 10
-10.63253888948658
 20
127.8372172427513
 30
0.0
 11
-10.54275178545435
 21
127.6306478107815
 31
0.0
 11
-10.55990811744314
 21
127.6962415317475
 31
0.0
 11
-10.58485353864856
 21
127.7580215443343
 31
0.0
 11
-10.60688509592639
 21
127.7987868078941
 31
0.0
 11
-10.63253888948658
 21
127.8372172427513
 31
0.0
  0
SPLINE
  5
1DF
330
1F
100
AcDbEntity
  8
0
  6
Continuous
 62
     7
100
AcDbSpline
210
0.0
220
0.0
230
1.0
 70
     8
 71
     3
 72
    11
 73
     7
 74
     5
 42
0.000000001
 43
0.0000000001
 44
0.00000001
 40
0.0
 40
0.0
 40
0.0
 40
0.0
 40
0.1865618066783771
 40
0.3733238252172366
 40
0.5776016850758092
 40
0.7561511142038988
 40
0.7561511142038988
 40
0.7561511142038988
 40
0.7561511142038988
 10
-12.62175443297537
 20
127.6477814220965
 30
0.0
 10
-12.68000505356194
 20
127.6699426770397
 30
0.0
 10
-12.79656880143284
 20
127.7142889833351
 30
0.0
 10
-12.96048759336159
 20
127.817195578351
 30
0.0
 10
-13.10654381011421
 20
127.9400116133688
 30
0.0
 10
-13.18817230346574
 20
128.0383557620198
 30
0.0
 10
-13.22624356752781
 20
128.0842231648086
 30
0.0
 11
-12.62175443297537
 21
127.6477814220965
 31
0.0
 11
-12.79385479028564
 21
127.7198006905464
 31
0.0
 11
-12.95307553352749
 21
127.8174162991885
 31
0.0
 11
-13.10843243345892
 21
127.9500574629604
 31
0.0
 11
-13.22624356752781
 21
128.0842231648086
 31
0.0
  0
SPLINE
  5
1E0
330
1F
100
AcDbEntity
  8
0
  6
Continuous
 62
     7
100
AcDbSpline
210
0.0
220
0.0
230
1.0
 70
     8
 71
     3
 72
    11
 73
     7
 74
     5
 42
0.000000001
 43
0.0000000001
 44
0.00000001
 40
0.0
 40
0.0
 40
0.0
 40
0.0
 40
0.2943257745612026
 40
0.5793667506936775
 40
0.7136770235048496
 40
0.8489956794824163
 40
0.8489956794824163
 40
0.8489956794824163
 40
0.8489956794824163
 10
-13.22894743263735
 20
128.0802624444507
 30
0.0
 10
-13.16415523015187
 20
128.0060446992404
 30
0.0
 10
-13.03661474869044
 20
127.8599504922389
 30
0.0
 10
-12.83341234294798
 20
127.7302314392757
 30
0.0
 10
-12.66394923499907
 20
127.6555337419758
 30
0.0
 10
-12.57736773751931
 20
127.6309947466784
 30
0.0
 10
-12.53391508387131
 20
127.6186793693633
 30
0.0
 11
-13.22894743263735
 21
128.0802624444507
 31
0.0
 11
-13.02491349986294
 21
127.8681355580413
 31
0.0
 11
-12.78646648236099
 21
127.7119581615648
 31
0.0
 11
-12.6632140949688
 21
127.6585905801598
 31
0.0
 11
-12.53391508387131
 21
127.6186793693633
 31
0.0
  0
SPLINE
  5
1E1
330
1F
100
AcDbEntity
  8
0
  6
Continuous
 62
     2
100
AcDbSpline
210
0.0
220
0.0
230
1.0
 70
     8
 71
     3
 72
    11
 73
     7
 74
     5
 42
0.000000001
 43
0.0000000001
 44
0.00000001
 40
0.0
 40
0.0
 40
0.0
 40
0.0
 40
0.1931993332830474
 40
0.3909475079929903
 40
0.5972208482719488
 40
0.8150478580966352
 40
0.8150478580966352
 40
0.8150478580966352
 40
0.8150478580966352
 10
-10.44895991749227
 20
127.7180037665466
 30
0.0
 10
-10.38653838865613
 20
127.7012664078609
 30
0.0
 10
-10.26022562489748
 20
127.6673976271327
 30
0.0
 10
-10.0594462005471
 20
127.6652375743366
 30
0.0
 10
-9.853312572026113
 20
127.6961396733032
 30
0.0
 10
-9.72040585739745
 20
127.7453300155139
 30
0.0
 10
-9.652142128624938
 20
127.7705952344815
 30
0.0
 11
-10.44895991749227
 21
127.7180037665466
 31
0.0
 11
-10.26044501214233
 21
127.6757176771669
 31
0.0
 11
-10.06276759023844
 21
127.6704282293823
 31
0.0
 11
-9.858958379432533
 21
127.702216547883
 31
0.0
 11
-9.652142128624938
 21
127.7705952344815
 31
0.0
  0
SPLINE
  5
1E2
330
1F
100
AcDbEntity
  8
0
  6
Continuous
 62
     7
100
AcDbSpline
210
0.0
220
0.0
230
1.0
 70
     8
 71
     3
 72
    11
 73
     7
 74
     5
 42
0.000000001
 43
0.0000000001
 44
0.00000001
 40
0.0
 40
0.0
 40
0.0
 40
0.0
 40
0.0446052328094282
 40
0.0892104656183701
 40
0.5947652903279421
 40
1.10032011539405
 40
1.10032011539405
 40
1.10032011539405
 40
1.10032011539405
 10
-10.69660565143999
 20
128.1167170423029
 30
0.0
 10
-10.68249201973026
 20
128.1120399658936
 30
0.0
 10
-10.65426475631119
 20
128.1026858130745
 30
0.0
 10
-10.46607387079209
 20
128.0403217689049
 30
0.0
 10
-10.13203299481084
 20
127.929624909633
 30
0.0
 10
-9.812105750686905
 20
127.8236051263247
 30
0.0
 10
-9.652142128624938
 20
127.7705952344815
 30
0.0
 11
-10.69660565143999
 21
128.1167170423029
 31
0.0
 11
-10.65426475631076
 21
128.1026858130752
 31
0.0
 11
-10.61192386118163
 21
128.0886545838488
 31
0.0
 11
-10.13203299490193
 21
127.9296249097358
 31
0.0
 11
-9.652142128624938
 21
127.7705952344815
 31
0.0
  0
SPLINE
  5
1E3
330
1F
100
AcDbEntity
  8
0
  6
Continuous
 62
     7
100
AcDbSpline
210
0.0
220
0.0
230
1.0
 70
     8
 71
     3
 72
    15
 73
    11
 74
     9
 42
0.000000001
 43
0.0000000001
 44
0.00000001
 40
0.0
 40
0.0
 40
0.0
 40
0.0
 40
0.0854062257654606
 40
0.1604721333043526
 40
0.2382118148496442
 40
0.334012987625162
 40
0.4250815647524848
 40
0.518555449946829
 40
0.6222268118030808
 40
0.710848265911518
 40
0.710848265911518
 40
0.710848265911518
 40
0.710848265911518
 10
-9.652142128624938
 20
127.7705952344815
 30
0.0
 10
-9.62540482483885
 20
127.7607393812051
 30
0.0
 10
-9.575167366143283
 20
127.7422209313221
 30
0.0
 10
-9.504535897428138
 20
127.7055916615572
 30
0.0
 10
-9.433895675979915
 20
127.6621652771491
 30
0.0
 10
-9.362814575681528
 20
127.6097321095675
 30
0.0
 10
-9.292125707795625
 20
127.5484854721419
 30
0.0
 10
-9.224261912308153
 20
127.4803926109633
 30
0.0
 10
-9.161602020105326
 20
127.408487275987
 30
0.0
 10
-9.123559258734941
 20
127.35687752719
 30
0.0
 10
-9.106026603003116
 20
127.3330922818292
 30
0.0
 11
-9.652142128624938
 21
127.7705952344815
 31
0.0
 11
-9.57268264588747
 21
127.7392836674773
 31
0.0
 11
-9.505784569063323
 21
127.7052316772982
 31
0.0
 11
-9.439568143076347
 21
127.664502777748
 31
0.0
 11
-9.362352449142712
 21
127.6077965029254
 31
0.0
 11
-9.293482145577958
 21
127.5482115453132
 31
0.0
 11
-9.227380742970418
 21
127.4821209119492
 31
0.0
 11
-9.1594999032509
 21
127.4037631250582
 31
0.0
 11
-9.106026603003116
 21
127.3330922818292
 31
0.0
  0
SPLINE
  5
1E4
330
1F
100
AcDbEntity
  8
0
  6
Continuous
 62
     7
100
AcDbSpline
210
0.0
220
0.0
230
1.0
 70
    24
 71
     3
 72
    11
 73
     7
 74
     5
 42
0.000000001
 43
0.0000000001
 44
0.00000001
 40
0.0
 40
0.0
 40
0.0
 40
0.0
 40
0.6354579765433169
 40
1.270915952983986
 40
1.906373929323339
 40
2.541831905560022
 40
2.541831905560022
 40
2.541831905560022
 40
2.541831905560022
 10
-9.463400115154656
 20
129.9890829461149
 30
0.0
 10
-9.268972885877645
 20
129.9050265413794
 30
0.0
 10
-8.880118427357125
 20
129.7369137319172
 30
0.0
 10
-8.296836739629368
 20
129.4847445177293
 30
0.0
 10
-7.713555052001755
 20
129.2325753035675
 30
0.0
 10
-7.324700593618704
 20
129.0644624941299
 30
0.0
 10
-7.130273364443944
 20
128.9804060894155
 30
0.0
 11
-9.463400115154656
 21
129.9890829461149
 31
0.0
 11
-8.880118427325193
 21
129.7369137319048
 31
0.0
 11
-8.29683673959731
 21
129.4847445177184
 31
0.0
 11
-7.71355505196981
 21
129.2325753035551
 31
0.0
 11
-7.130273364443944
 21
128.9804060894155
 31
0.0
  0
SPLINE
  5
1E5
330
1F
100
AcDbEntity
  8
0
  6
Continuous
 62
     7
100
AcDbSpline
210
0.0
220
0.0
230
1.0
 70
     8
 71
     3
 72
    11
 73
     7
 74
     5
 42
0.000000001
 43
0.0000000001
 44
0.00000001
 40
0.0
 40
0.0
 40
0.0
 40
0.0
 40
0.0011989106564046
 40
0.0023978213841396
 40
0.0035967321831004
 40
0.0047956430521917
 40
0.0047956430521917
 40
0.0047956430521917
 40
0.0047956430521917
 10
-13.22894743263735
 20
128.0802624444507
 30
0.0
 10
-13.2287221106889
 20
128.0805925045358
 30
0.0
 10
-13.22827146671668
 20
128.0812526246834
 30
0.0
 10
-13.22759550055241
 20
128.0822428048073
 30
0.0
 10
-13.22691953416206
 20
128.0832329848626
 30
0.0
 10
-13.22646888976433
 20
128.0838931048343
 30
0.0
 10
-13.22624356752781
 20
128.0842231648086
 30
0.0
 11
-13.22894743263735
 21
128.0802624444507
 31
0.0
 11
-13.22827146674552
 21
128.0812526246743
 31
0.0
 11
-13.22759550059664
 21
128.0822428048087
 31
0.0
 11
-13.22691953419073
 21
128.0832329848539
 31
0.0
 11
-13.22624356752781
 21
128.0842231648086
 31
0.0
  0
SPLINE
  5
1E6
330
1F
100
AcDbEntity
  8
0
  6
Continuous
 62
     7
100
AcDbSpline
210
0.0
220
0.0
230
1.0
 70
     8
 71
     3
 72
     9
 73
     5
 74
     3
 42
0.000000001
 43
0.0000000001
 44
0.00000001
 40
0.0
 40
0.0
 40
0.0
 40
0.0
 40
0.0144844655145334
 40
0.0289692151570973
 40
0.0289692151570973
 40
0.0289692151570973
 40
0.0289692151570973
 10
-13.22624356752781
 20
128.0842231648086
 30
0.0
 10
-13.23078654455435
 20
128.0858579253719
 30
0.0
 10
-13.23987258095073
 20
128.0891274973847
 30
0.0
 10
-13.2489585341226
 20
128.0923973006665
 30
0.0
 10
-13.25350155187963
 20
128.0940322277518
 30
0.0
 11
-13.22624356752781
 21
128.0842231648086
 31
0.0
 11
-13.23987247441584
 21
128.0891275137238
 31
0.0
 11
-13.25350155187963
 21
128.0940322277518
 31
0.0
  0
SPLINE
  5
1E7
330
1F
100
AcDbEntity
  8
0
  6
Continuous
 62
     7
100
AcDbSpline
210
0.0
220
0.0
230
1.0
 70
     8
 71
     3
 72
    11
 73
     7
 74
     5
 42
0.000000001
 43
0.0000000001
 44
0.00000001
 40
0.0
 40
0.0
 40
0.0
 40
0.0
 40
0.0612121763557772
 40
0.1224243523411516
 40
0.1836365279336255
 40
0.2448487031082653
 40
0.2448487031082653
 40
0.2448487031082653
 40
0.2448487031082653
 10
-7.094483639964111
 20
131.5032388294019
 30
0.0
 10
-7.108653356467129
 20
131.4885573870635
 30
0.0
 10
-7.136992789030659
 20
131.4591945021311
 30
0.0
 10
-7.179501936625868
 20
131.415150173794
 30
0.0
 10
-7.222011082785734
 20
131.3711058446187
 30
0.0
 10
-7.250350512660916
 20
131.3417429578208
 30
0.0
 10
-7.26452022734123
 20
131.3270615142704
 30
0.0
 11
-7.094483639964111
 21
131.5032388294019
 31
0.0
 11
-7.136992789202498
 21
131.4591945021254
 31
0.0
 11
-7.179501936908309
 21
131.4151501738845
 31
0.0
 11
-7.222011082988911
 21
131.3711058446211
 31
0.0
 11
-7.26452022734123
 21
131.3270615142704
 31
0.0
  0
SPLINE
  5
1E8
330
1F
100
AcDbEntity
  8
0
  6
Continuous
 62
     7
100
AcDbSpline
210
0.0
220
0.0
230
1.0
 70
     8
 71
     3
 72
    11
 73
     7
 74
     5
 42
0.000000001
 43
0.0000000001
 44
0.00000001
 40
0.0
 40
0.0
 40
0.0
 40
0.0
 40
0.0712882154840725
 40
0.1415585884231429
 40
0.213078294701067
 40
0.2831202870567133
 40
0.2831202870567133
 40
0.2831202870567133
 40
0.2831202870567133
 10
-7.300806828315018
 20
131.3858937191735
 30
0.0
 10
-7.324183834990998
 20
131.3816295310985
 30
0.0
 10
-7.370604072235919
 20
131.3731620236995
 30
0.0
 10
-7.440476369262093
 20
131.3604117788224
 30
0.0
 10
-7.509939396832923
 20
131.3477327636872
 30
0.0
 10
-7.556359033007399
 20
131.3392561885811
 30
0.0
 10
-7.579326570438106
 20
131.3350621357059
 30
0.0
 11
-7.300806828315018
 21
131.3858937191735
 31
0.0
 11
-7.370937703119381
 21
131.3731003589383
 31
0.0
 11
-7.440066591371689
 21
131.3604859971997
 31
0.0
 11
-7.5104237995292
 21
131.347643425555
 31
0.0
 11
-7.579326570438106
 21
131.3350621357059
 31
0.0
  0
SPLINE
  5
1E9
330
1F
100
AcDbEntity
  8
0
  6
Continuous
 62
     7
100
AcDbSpline
210
0.0
220
0.0
230
1.0
 70
     8
 71
     3
 72
    11
 73
     7
 74
     5
 42
0.000000001
 43
0.0000000001
 44
0.00000001
 40
0.0
 40
0.0
 40
0.0
 40
0.0
 40
0.0437748081363913
 40
0.0875496145215536
 40
0.1313244190519535
 40
0.1750992216104962
 40
0.1750992216104962
 40
0.1750992216104962
 40
0.1750992216104962
 10
-7.130273364443944
 20
128.9804060894155
 30
0.0
 10
-7.144484487326956
 20
128.9837165057206
 30
0.0
 10
-7.172906732544593
 20
128.9903373381117
 30
0.0
 10
-7.215540099547611
 20
129.0002685862217
 30
0.0
 10
-7.258173464805373
 20
129.0101998336286
 30
0.0
 10
-7.286595707741085
 20
129.0168206648952
 30
0.0
 10
-7.300806828900647
 20
129.0201310804035
 30
0.0
 11
-7.130273364443944
 21
128.9804060894155
 31
0.0
 11
-7.172906733108252
 21
128.990337338265
 31
0.0
 11
-7.215540100138959
 21
129.0002685864083
 31
0.0
 11
-7.25817346543952
 21
129.0101998338035
 31
0.0
 11
-7.300806828900647
 21
129.0201310804035
 31
0.0
  0
SPLINE
  5
1EA
330
1F
100
AcDbEntity
  8
0
  6
Continuous
 62
     7
100
AcDbSpline
210
0.0
220
0.0
230
1.0
 70
     8
 71
     3
 72
    11
 73
     7
 74
     5
 42
0.000000001
 43
0.0000000001
 44
0.00000001
 40
0.0
 40
0.0
 40
0.0
 40
0.0
 40
0.0733481307845308
 40
0.1466963582720114
 40
0.2200446742285042
 40
0.2933930759051221
 40
0.2933930759051221
 40
0.2933930759051221
 40
0.2933930759051221
 10
-7.579326570437758
 20
129.1123604171643
 30
0.0
 10
-7.556116554097132
 20
129.1046749000282
 30
0.0
 10
-7.509696495530743
 20
129.0893038413838
 30
0.0
 10
-7.440066545891178
 20
129.0662466909482
 30
0.0
 10
-7.370436634305745
 20
129.043189138348
 30
0.0
 10
-7.32401677150546
 20
129.027817107459
 30
0.0
 10
-7.300806828900647
 20
129.0201310804035
 30
0.0
 11
-7.579326570437758
 21
129.1123604171643
 31
0.0
 11
-7.509696553238358
 21
129.0893037696543
 31
0.0
 11
-7.440066591371334
 21
129.0662466474149
 31
0.0
 11
-7.370436684777308
 21
129.043189076828
 31
0.0
 11
-7.300806828900647
 21
129.0201310804035
 31
0.0
  0
SPLINE
  5
1EB
330
1F
100
AcDbEntity
  8
0
  6
Continuous
 62
     7
100
AcDbSpline
210
0.0
220
0.0
230
1.0
 70
     8
 71
     3
 72
    11
 73
     7
 74
     5
 42
0.000000001
 43
0.0000000001
 44
0.00000001
 40
0.0
 40
0.0
 40
0.0
 40
0.0
 40
0.0437290559764016
 40
0.0874581138877841
 40
0.1311871736187194
 40
0.1749162350654755
 40
0.1749162350654755
 40
0.1749162350654755
 40
0.1749162350654755
 10
-7.264520227340988
 20
129.1152498872706
 30
0.0
 10
-7.250350513620251
 20
129.1118309326832
 30
0.0
 10
-7.222011085596098
 20
129.1049930231733
 30
0.0
 10
-7.179501942785057
 20
129.094736158159
 30
0.0
 10
-7.136992798324803
 20
129.0844792922056
 30
0.0
 10
-7.108653368185219
 20
129.0776413811032
 30
0.0
 10
-7.094483652856376
 20
129.0742224254064
 30
0.0
 11
-7.264520227340988
 21
129.1152498872706
 31
0.0
 11
-7.222011086211801
 21
129.1049930233713
 31
0.0
 11
-7.179501943354332
 21
129.0947361583854
 31
0.0
 11
-7.136992798871642
 21
129.0844792923777
 31
0.0
 11
-7.094483652856376
 21
129.0742224254064
 31
0.0
  0
SPLINE
  5
1EC
330
1F
100
AcDbEntity
  8
0
  6
Continuous
 62
     7
100
AcDbSpline
210
0.0
220
0.0
230
1.0
 70
     8
 71
     3
 72
    11
 73
     7
 74
     5
 42
0.000000001
 43
0.0000000001
 44
0.00000001
 40
0.0
 40
0.0
 40
0.0
 40
0.0
 40
0.0733298385298079
 40
0.1466595430545743
 40
0.2199891082108661
 40
0.2933185228926768
 40
0.2933185228926768
 40
0.2933185228926768
 40
0.2933185228926768
 10
-7.264520227340988
 20
129.1152498872706
 30
0.0
 10
-7.287005024034686
 20
129.1248367444645
 30
0.0
 10
-7.331974582215806
 20
129.1440104275348
 30
0.0
 10
-7.399429226950486
 20
129.1727700556175
 30
0.0
 10
-7.466884018078807
 20
129.2015289800971
 30
0.0
 10
-7.511854116290104
 20
129.2207009178345
 30
0.0
 10
-7.534339145267055
 20
129.2302868699687
 30
0.0
 11
-7.264520227340988
 21
129.1152498872706
 31
0.0
 11
-7.331974681173587
 21
129.1440103093287
 31
0.0
 11
-7.399429311822352
 21
129.1727699750038
 31
0.0
 11
-7.466884130629035
 21
129.2015288439973
 31
0.0
 11
-7.534339145267055
 21
129.2302868699687
 31
0.0
  0
SPLINE
  5
1ED
330
1F
100
AcDbEntity
  8
0
  6
Continuous
 62
     7
100
AcDbSpline
210
0.0
220
0.0
230
1.0
 70
     8
 71
     3
 72
    11
 73
     7
 74
     5
 42
0.000000001
 43
0.0000000001
 44
0.00000001
 40
0.0
 40
0.0
 40
0.0
 40
0.0
 40
0.0686873915174545
 40
0.1387638583416211
 40
0.2075026637783175
 40
0.2775234140373159
 40
0.2775234140373159
 40
0.2775234140373159
 40
0.2775234140373159
 10
-7.534339145267275
 20
131.2621231080727
 30
0.0
 10
-7.512079470449359
 20
131.2674826234865
 30
0.0
 10
-7.467109956574932
 20
131.2783100259143
 30
0.0
 10
-7.399862941265662
 20
131.2944961170736
 30
0.0
 10
-7.332183073841375
 20
131.3107831407283
 30
0.0
 10
-7.28721299761589
 20
131.3216020773384
 30
0.0
 10
-7.26452022734123
 20
131.3270615142704
 30
0.0
 11
-7.534339145267275
 21
131.2621231080727
 31
0.0
 11
-7.4675599290881
 21
131.2782008579156
 31
0.0
 11
-7.399429311822573
 21
131.2945999491604
 31
0.0
 11
-7.332598361987085
 21
131.310682471258
 31
0.0
 11
-7.26452022734123
 21
131.3270615142704
 31
0.0
  0
SPLINE
  5
1EE
330
1F
100
AcDbEntity
  8
0
  6
Continuous
 62
     7
100
AcDbSpline
210
0.0
220
0.0
230
1.0
 70
     8
 71
     3
 72
    15
 73
    11
 74
     9
 42
0.000000001
 43
0.0000000001
 44
0.00000001
 40
0.0
 40
0.0
 40
0.0
 40
0.0
 40
0.0732358151296273
 40
0.1488299777008416
 40
0.2270698100920631
 40
0.3081410439523818
 40
0.3920699685966959
 40
0.4788251004177201
 40
0.5682164275735947
 40
0.66003971258031
 40
0.66003971258031
 40
0.66003971258031
 40
0.66003971258031
 10
-8.173833669161887
 20
131.3323086661721
 30
0.0
 10
-8.152668541274508
 20
131.3200815984473
 30
0.0
 10
-8.10965671683006
 20
131.2952337385419
 30
0.0
 10
-8.038776005452707
 20
131.2679019749473
 30
0.0
 10
-7.96308674319579
 20
131.2474210936442
 30
0.0
 10
-7.882845455520142
 20
131.2347587609355
 30
0.0
 10
-7.798950611210694
 20
131.2297480076668
 30
0.0
 10
-7.71221175804231
 20
131.2326261655408
 30
0.0
 10
-7.623314384292375
 20
131.2427475341448
 30
0.0
 10
-7.564261725824764
 20
131.2556070523916
 30
0.0
 10
-7.534339145267275
 20
131.2621231080727
 30
0.0
 11
-8.173833669161887
 21
131.3323086661721
 31
0.0
 11
-8.109503862208268
 21
131.2973063687128
 31
0.0
 11
-8.039228234409606
 21
131.2694529326543
 31
0.0
 11
-7.963704207432112
 21
131.2490178397328
 31
0.0
 11
-7.883654545629049
 21
131.2361883099211
 31
0.0
 11
-7.799881078099615
 21
131.231082364724
 31
0.0
 11
-7.713166600901985
 21
131.2337379984493
 31
0.0
 11
-7.624380128917347
 21
131.2441193129783
 31
0.0
 11
-7.534339145267275
 21
131.2621231080727
 31
0.0
  0
SPLINE
  5
1EF
330
1F
100
AcDbEntity
  8
0
  6
Continuous
 62
     2
100
AcDbSpline
210
0.0
220
0.0
230
1.0
 70
     8
 71
     3
 72
    11
 73
     7
 74
     5
 42
0.000000001
 43
0.0000000001
 44
0.00000001
 40
0.0
 40
0.0
 40
0.0
 40
0.0
 40
0.6033214830829496
 40
1.194446932283902
 40
1.760247341097566
 40
2.290840771664645
 40
2.290840771664645
 40
2.290840771664645
 40
2.290840771664645
 10
-7.579326570437758
 20
129.1123604171643
 30
0.0
 10
-7.662657321185135
 20
128.9288278356462
 30
0.0
 10
-7.827634319980968
 20
128.5654727570827
 30
0.0
 10
-8.170430192388553
 20
128.0860008266199
 30
0.0
 10
-8.559420516826894
 20
127.673879885267
 30
0.0
 10
-8.867135075141704
 20
127.474546119327
 30
0.0
 10
-9.016051752661355
 20
127.3780797070003
 30
0.0
 11
-7.579326570437758
 21
129.1123604171643
 31
0.0
 11
-7.846574177327637
 21
128.5714579039566
 31
0.0
 11
-8.186164899307592
 21
128.08761139924
 31
0.0
 11
-8.582179235879497
 21
127.6835040495033
 31
0.0
 11
-9.016051752661355
 21
127.3780797070003
 31
0.0
  0
SPLINE
  5
1F0
330
1F
100
AcDbEntity
  8
0
  6
Continuous
 62
     2
100
AcDbSpline
210
0.0
220
0.0
230
1.0
 70
     8
 71
     3
 72
    11
 73
     7
 74
     5
 42
0.000000001
 43
0.0000000001
 44
0.00000001
 40
0.0
 40
0.0
 40
0.0
 40
0.0
 40
0.4611270373429293
 40
0.963534431126672
 40
1.506462565317644
 40
2.082536420723847
 40
2.082536420723847
 40
2.082536420723847
 40
2.082536420723847
 10
-7.534339145267275
 20
131.2621231080727
 30
0.0
 10
-7.476616756166637
 20
131.1187980169993
 30
0.0
 10
-7.356004650944479
 20
130.8193172858301
 30
0.0
 10
-7.317633230399667
 20
130.3123743185909
 30
0.0
 10
-7.365790700862942
 20
129.7712748974589
 30
0.0
 10
-7.477057719976374
 20
129.4141423933503
 30
0.0
 10
-7.534339145267055
 20
129.2302868699687
 30
0.0
 11
-7.534339145267275
 21
131.2621231080727
 31
0.0
 11
-7.383175555436953
 21
130.8264767890514
 31
0.0
 11
-7.331987554058749
 21
130.3266838513494
 31
0.0
 11
-7.38317555543684
 21
129.7861741386969
 31
0.0
 11
-7.534339145267055
 21
129.2302868699687
 31
0.0
  0
SPLINE
  5
1F1
330
1F
100
AcDbEntity
  8
0
  6
Continuous
 62
     7
100
AcDbSpline
210
0.0
220
0.0
230
1.0
 70
     8
 71
     3
 72
    15
 73
    11
 74
     9
 42
0.000000001
 43
0.0000000001
 44
0.00000001
 40
0.0
 40
0.0
 40
0.0
 40
0.0
 40
0.1066740221171254
 40
0.1957707959480112
 40
0.2917788429017952
 40
0.3853103949395097
 40
0.4679675872558886
 40
0.5615449053238982
 40
0.6358895195276489
 40
0.7179120037481793
 40
0.7179120037481793
 40
0.7179120037481793
 40
0.7179120037481793
 10
-7.534339145267055
 20
129.2302868699687
 30
0.0
 10
-7.566980167789591
 20
129.2443936748768
 30
0.0
 10
-7.626883771708635
 20
129.27028284379
 30
0.0
 10
-7.715350256675837
 20
129.310707928247
 30
0.0
 10
-7.799259046915824
 20
129.3505381250687
 30
0.0
 10
-7.880536632751129
 20
129.3908765187261
 30
0.0
 10
-7.960386672928072
 20
129.4322386518394
 30
0.0
 10
-8.033763359491369
 20
129.4721553732298
 30
0.0
 10
-8.106153695331281
 20
129.5134217437389
 30
0.0
 10
-8.150547085401135
 20
129.5407410360796
 30
0.0
 10
-8.17383366915712
 20
129.5550713986646
 30
0.0
 11
-7.534339145267055
 21
129.2302868699687
 31
0.0
 11
-7.63209995733689
 21
129.2729737588634
 31
0.0
 11
-7.713166600900131
 21
129.3099390710084
 31
0.0
 11
-7.79988119184587
 21
129.3511473796656
 31
0.0
 11
-7.883654545625788
 21
129.3927427695821
 31
0.0
 11
-7.957031495270806
 21
129.4307958224792
 31
0.0
 11
-8.039228234405279
 21
129.4755217738491
 31
0.0
 11
-8.103727777547618
 21
129.5124937996097
 31
0.0
 11
-8.17383366915712
 21
129.5550713986646
 31
0.0
  0
SPLINE
  5
1F2
330
1F
100
AcDbEntity
  8
0
  6
Continuous
 62
     7
100
AcDbSpline
210
0.0
220
0.0
230
1.0
 70
     8
 71
     3
 72
    11
 73
     7
 74
     5
 42
0.000000001
 43
0.0000000001
 44
0.00000001
 40
0.0
 40
0.0
 40
0.0
 40
0.0
 40
0.5014952907064688
 40
1.048546298138289
 40
1.640368482959637
 40
2.26865624217459
 40
2.26865624217459
 40
2.26865624217459
 40
2.26865624217459
 10
-7.26452022734123
 20
131.3270615142704
 30
0.0
 10
-7.200762871756659
 20
131.1715557307579
 30
0.0
 10
-7.067456471364747
 20
130.8464180492965
 30
0.0
 10
-7.025131768122539
 20
130.2942221340438
 30
0.0
 10
-7.078399908196026
 20
129.7044897007684
 30
0.0
 10
-7.201256176011351
 20
129.315538039072
 30
0.0
 10
-7.264520227340988
 20
129.1152498872706
 30
0.0
 11
-7.26452022734123
 21
131.3270615142704
 31
0.0
 11
-7.097553132067702
 21
130.8541772604947
 31
0.0
 11
-7.04098783836638
 21
130.3100585461353
 31
0.0
 11
-7.097553132067582
 21
129.7209457655288
 31
0.0
 11
-7.264520227340988
 21
129.1152498872706
 31
0.0
  0
SPLINE
  5
1F3
330
1F
100
AcDbEntity
  8
0
  6
Continuous
 62
     7
100
AcDbSpline
210
0.0
220
0.0
230
1.0
 70
     8
 71
     3
 72
    11
 73
     7
 74
     5
 42
0.000000001
 43
0.0000000001
 44
0.00000001
 40
0.0
 40
0.0
 40
0.0
 40
0.0
 40
0.5502101619598955
 40
1.151151683773454
 40
1.802015524685398
 40
2.493357811891181
 40
2.493357811891181
 40
2.493357811891181
 40
2.493357811891181
 10
-7.094483639964111
 20
131.5032388294019
 30
0.0
 10
-7.023414045903119
 20
131.3330522825056
 30
0.0
 10
-6.874721999324994
 20
130.9769873707993
 30
0.0
 10
-6.827609569969732
 20
130.3701523764357
 30
0.0
 10
-6.887074603540141
 20
129.7216999262522
 30
0.0
 10
-7.023971116613409
 20
129.294344341576
 30
0.0
 10
-7.094483652856376
 20
129.0742224254064
 30
0.0
 11
-7.094483639964111
 21
131.5032388294019
 31
0.0
 11
-6.908368175574956
 21
130.9854625666954
 31
0.0
 11
-6.845285487751266
 21
130.387841206184
 31
0.0
 11
-6.908368177186388
 21
129.7400416104424
 31
0.0
 11
-7.094483652856376
 21
129.0742224254064
 31
0.0
  0
SPLINE
  5
1F4
330
1F
100
AcDbEntity
  8
0
  6
Continuous
 62
     7
100
AcDbSpline
210
0.0
220
0.0
230
1.0
 70
     8
 71
     3
 72
    15
 73
    11
 74
     9
 42
0.000000001
 43
0.0000000001
 44
0.00000001
 40
0.0
 40
0.0
 40
0.0
 40
0.0
 40
0.0939939700329282
 40
0.186188657953227
 40
0.2841069201362162
 40
0.3645140676390513
 40
0.4577507954193519
 40
0.5341891279330182
 40
0.6158859826840619
 40
0.6957152548461323
 40
0.6957152548461323
 40
0.6957152548461323
 40
0.6957152548461323
 10
-7.579326570438106
 20
131.3350621357059
 30
0.0
 10
-7.610288846185676
 20
131.3301487230973
 30
0.0
 10
-7.671620703493871
 20
131.3204159673611
 30
0.0
 10
-7.76636316074339
 20
131.3155226231463
 30
0.0
 10
-7.856613486255169
 20
131.3186158416991
 30
0.0
 10
-7.946491392057551
 20
131.3302408851738
 30
0.0
 10
-8.027945938495348
 20
131.3488296066213
 30
0.0
 10
-8.107309243725904
 20
131.3759646933328
 30
0.0
 10
-8.179848502328808
 20
131.4086919456656
 30
0.0
 10
-8.225260734118272
 20
131.4377269763483
 30
0.0
 10
-8.247704315687244
 20
131.4520766448001
 30
0.0
 11
-7.579326570438106
 21
131.3350621357059
 31
0.0
 11
-7.672406409872505
 21
131.3219850665611
 31
0.0
 11
-7.764460892512496
 21
131.3169024769481
 31
0.0
 11
-7.862312938784419
 21
131.3205029233763
 31
0.0
 11
-7.94204956602367
 21
131.3308653444535
 31
0.0
 11
-8.032905515566043
 21
131.3518005800618
 31
0.0
 11
-8.105246716832838
 21
131.3764900412629
 31
0.0
 11
-8.17943902049043
 21
131.4106935273359
 31
0.0
 11
-8.247704315687244
 21
131.4520766448001
 31
0.0
  0
SPLINE
  5
1F5
330
1F
100
AcDbEntity
  8
0
  6
Continuous
 62
     7
100
AcDbSpline
210
0.0
220
0.0
230
1.0
 70
     8
 71
     3
 72
    11
 73
     7
 74
     5
 42
0.000000001
 43
0.0000000001
 44
0.00000001
 40
0.0
 40
0.0
 40
0.0
 40
0.0
 40
0.7274189873790485
 40
1.454837974789144
 40
2.196627327962223
 40
2.938416688792852
 40
2.938416688792852
 40
2.938416688792852
 40
2.938416688792852
 10
-13.40356843795451
 20
128.3700318308129
 30
0.0
 10
-13.17822942595989
 20
128.2805025989268
 30
0.0
 10
-12.72755140258534
 20
128.1014441335791
 30
0.0
 10
-12.04708273148287
 20
127.8310877624313
 30
0.0
 10
-11.3621624192474
 20
127.5589627240466
 30
0.0
 10
-10.90258111588205
 20
127.3763669254403
 30
0.0
 10
-10.67279046149211
 20
127.2850690294947
 30
0.0
 11
-13.40356843795451
 21
128.3700318308129
 31
0.0
 11
-12.72755140190334
 21
128.1014441353236
 31
0.0
 11
-12.05153436577475
 21
127.8328564399453
 31
0.0
 11
-11.36216242213362
 21
127.5589627236951
 31
0.0
 11
-10.67279046149211
 21
127.2850690294947
 31
0.0
  0
SPLINE
  5
1F6
330
1F
100
AcDbEntity
  8
0
  6
Continuous
 62
     7
100
AcDbSpline
210
0.0
220
0.0
230
1.0
 70
     8
 71
     3
 72
    13
 73
     9
 74
     7
 42
0.000000001
 43
0.0000000001
 44
0.00000001
 40
0.0
 40
0.0
 40
0.0
 40
0.0
 40
0.2993137239232823
 40
0.5816923080704648
 40
0.8514644127812365
 40
1.114470966338684
 40
1.494982944511706
 40
1.89511003050126
 40
1.89511003050126
 40
1.89511003050126
 40
1.89511003050126
 10
-8.91942678649221
 20
126.8713211748409
 30
0.0
 10
-9.012278271370805
 20
126.8342052303308
 30
0.0
 10
-9.192727718440217
 20
126.762073371062
 30
0.0
 10
-9.474376550241002
 20
126.7131392435367
 30
0.0
 10
-9.747812532146025
 20
126.7152165814653
 30
0.0
 10
-10.04670913780224
 20
126.7810508650058
 30
0.0
 10
-10.36503459912827
 20
126.9390904714041
 30
0.0
 10
-10.54483937829518
 20
127.1294639327492
 30
0.0
 10
-10.63700073911398
 20
127.227042424514
 30
0.0
 11
-8.91942678649221
 21
126.8713211748409
 31
0.0
 11
-9.2011488609209
 21
126.7702203389683
 31
0.0
 11
-9.479219198962081
 21
126.7210822393155
 31
0.0
 11
-9.74896660979564
 21
126.7247323979508
 31
0.0
 11
-10.00585973093557
 21
126.7811094529703
 31
0.0
 11
-10.34519992734775
 21
126.9532651923004
 31
0.0
 11
-10.63700073911398
 21
127.227042424514
 31
0.0
  0
SPLINE
  5
1F7
330
1F
100
AcDbEntity
  8
0
  6
Continuous
 62
     7
100
AcDbSpline
210
0.0
220
0.0
230
1.0
 70
    24
 71
     3
 72
     9
 73
     5
 74
     3
 42
0.000000001
 43
0.0000000001
 44
0.00000001
 40
0.0
 40
0.0
 40
0.0
 40
0.0
 40
0.0337970796066908
 40
0.0675941592142172
 40
0.0675941592142172
 40
0.0675941592142172
 40
0.0675941592142172
 10
-7.094483639964111
 20
131.5032388294019
 30
0.0
 10
-7.104018994900086
 20
131.5092382335033
 30
0.0
 10
-7.123089704772312
 20
131.5212370417061
 30
0.0
 10
-7.142160414644704
 20
131.5332358499088
 30
0.0
 10
-7.151695769581039
 20
131.5392352540101
 30
0.0
 11
-7.094483639964111
 21
131.5032388294019
 31
0.0
 11
-7.123089704772084
 21
131.521237041706
 31
0.0
 11
-7.151695769581039
 21
131.5392352540101
 31
0.0
  0
SPLINE
  5
1F8
330
1F
100
AcDbEntity
  8
0
  6
Continuous
 62
     7
100
AcDbSpline
210
0.0
220
0.0
230
1.0
 70
     8
 71
     3
 72
    11
 73
     7
 74
     5
 42
0.000000001
 43
0.0000000001
 44
0.00000001
 40
0.0
 40
0.0
 40
0.0
 40
0.0
 40
0.06115395107727
 40
0.1223079026174828
 40
0.1834618545238626
 40
0.2446158067615193
 40
0.2446158067615193
 40
0.2446158067615193
 40
0.2446158067615193
 10
-7.300806828315018
 20
131.3858937191735
 30
0.0
 10
-7.286595708555894
 20
131.4005080287861
 30
0.0
 10
-7.2581734683556
 20
131.4297366475635
 30
0.0
 10
-7.215540106349489
 20
131.4735795743486
 30
0.0
 10
-7.172906742663207
 20
131.5174225000396
 30
0.0
 10
-7.144484499287202
 20
131.5466511164385
 30
0.0
 10
-7.130273377377762
 20
131.5612654244997
 30
0.0
 11
-7.300806828315018
 21
131.3858937191735
 31
0.0
 11
-7.25817346859918
 21
131.4297366475851
 31
0.0
 11
-7.215540106604408
 21
131.4735795744263
 31
0.0
 11
-7.172906742806656
 21
131.517422500025
 31
0.0
 11
-7.130273377377762
 21
131.5612654244997
 31
0.0
  0
SPLINE
  5
1F9
330
1F
100
AcDbEntity
  8
0
  6
Continuous
 62
     7
100
AcDbSpline
210
0.0
220
0.0
230
1.0
 70
     8
 71
     3
 72
    11
 73
     7
 74
     5
 42
0.000000001
 43
0.0000000001
 44
0.00000001
 40
0.0
 40
0.0
 40
0.0
 40
0.0
 40
0.4857317626916165
 40
0.9179968778528345
 40
1.31551521357084
 40
1.709131370168934
 40
1.709131370168934
 40
1.709131370168934
 40
1.709131370168934
 10
-8.864793828473779
 20
131.709806032594
 30
0.0
 10
-8.708391959363151
 20
131.7553129765278
 30
0.0
 10
-8.412804065097069
 20
131.8413176994893
 30
0.0
 10
-7.967963860697425
 20
131.8233814507051
 30
0.0
 10
-7.572680200770823
 20
131.6791331482658
 30
0.0
 10
-7.391132795481871
 20
131.4833182543205
 30
0.0
 10
-7.300806828315018
 20
131.3858937191735
 30
0.0
 11
-8.864793828473779
 21
131.709806032594
 31
0.0
 11
-8.391435750945039
 21
131.8187439777604
 31
0.0
 11
-7.959602459931791
 21
131.7994271199697
 31
0.0
 11
-7.590120076200469
 21
131.6527860676497
 31
0.0
 11
-7.300806828315018
 21
131.3858937191735
 31
0.0
  0
SPLINE
  5
1FA
330
1F
100
AcDbEntity
  8
0
  6
Continuous
 62
     7
100
AcDbSpline
210
0.0
220
0.0
230
1.0
 70
     8
 71
     3
 72
    13
 73
     9
 74
     7
 42
0.000000001
 43
0.0000000001
 44
0.00000001
 40
0.0
 40
0.0
 40
0.0
 40
0.0
 40
0.420843199375463
 40
0.8041191473612873
 40
1.157006443003523
 40
1.492637352469111
 40
1.68691327167478
 40
1.884716960547052
 40
1.884716960547052
 40
1.884716960547052
 40
1.884716960547052
 10
-8.847847337525998
 20
131.916986654811
 30
0.0
 10
-8.71346019397896
 20
131.9586266244249
 30
0.0
 10
-8.456682189904665
 20
132.038189490658
 30
0.0
 10
-8.067707466731859
 20
132.061286093029
 30
0.0
 10
-7.711865445218569
 20
131.9998972414047
 30
0.0
 10
-7.444150570204085
 20
131.8679629985861
 30
0.0
 10
-7.25454157284199
 20
131.7142442906577
 30
0.0
 10
-7.171943832433011
 20
131.612563343949
 30
0.0
 10
-7.130273377377762
 20
131.5612654244997
 30
0.0
 11
-8.847847337525998
 21
131.916986654811
 31
0.0
 11
-8.44097194351762
 21
132.0245106566604
 31
0.0
 11
-8.058326139381379
 21
132.0464797672586
 31
0.0
 11
-7.711335642433765
 21
131.9822377260914
 31
0.0
 11
-7.410361309168906
 21
131.8337030162126
 31
0.0
 11
-7.260263336083252
 21
131.7103590572565
 31
0.0
 11
-7.130273377377762
 21
131.5612654244997
 31
0.0
  0
SPLINE
  5
1FB
330
1F
100
AcDbEntity
  8
0
  6
Continuous
 62
     7
100
AcDbSpline
210
0.0
220
0.0
230
1.0
 70
     8
 71
     3
 72
     9
 73
     5
 74
     3
 42
0.000000001
 43
0.0000000001
 44
0.00000001
 40
0.0
 40
0.0
 40
0.0
 40
0.0
 40
0.2036224274306726
 40
0.4072448547203042
 40
0.4072448547203042
 40
0.4072448547203042
 40
0.4072448547203042
 10
-8.247704315687244
 20
131.4520766448001
 30
0.0
 10
-8.30359290270675
 20
131.4905911233495
 30
0.0
 10
-8.41537007651533
 20
131.5676200807
 30
0.0
 10
-8.527147249940294
 20
131.6446490386071
 30
0.0
 10
-8.583035836537555
 20
131.6831635176864
 30
0.0
 11
-8.247704315687244
 21
131.4520766448001
 31
0.0
 11
-8.415370076554023
 21
131.5676200807267
 31
0.0
 11
-8.583035836537555
 21
131.6831635176864
 31
0.0
  0
SPLINE
  5
1FC
330
1F
100
AcDbEntity
  8
0
  6
Continuous
 62
     2
100
AcDbSpline
210
0.0
220
0.0
230
1.0
 70
     8
 71
     3
 72
    11
 73
     7
 74
     5
 42
0.000000001
 43
0.0000000001
 44
0.00000001
 40
0.0
 40
0.0
 40
0.0
 40
0.0
 40
0.4321251353719744
 40
0.8185342041657163
 40
1.175628244383616
 40
1.529499702674018
 40
1.529499702674018
 40
1.529499702674018
 40
1.529499702674018
 10
-8.980045248911622
 20
131.6447408964714
 30
0.0
 10
-8.840033813278481
 20
131.6820152617464
 30
0.0
 10
-8.574823250967912
 20
131.7526205895934
 30
0.0
 10
-8.177841478339015
 20
131.7292023339126
 30
0.0
 10
-7.825232108308148
 20
131.5967582673775
 30
0.0
 10
-7.66104701353318
 20
131.4220301874326
 30
0.0
 10
-7.579326570438106
 20
131.3350621357059
 30
0.0
 11
-8.980045248911622
 21
131.6447408964714
 31
0.0
 11
-8.556892499874445
 21
131.7323416032258
 31
0.0
 11
-8.171227014336147
 21
131.7083811392251
 31
0.0
 11
-7.840408335561873
 21
131.5739372556431
 31
0.0
 11
-7.579326570438106
 21
131.3350621357059
 31
0.0
  0
SPLINE
  5
1FD
330
1F
100
AcDbEntity
  8
0
  6
Continuous
 62
     7
100
AcDbSpline
210
0.0
220
0.0
230
1.0
 70
     8
 71
     3
 72
     9
 73
     5
 74
     3
 42
0.000000001
 43
0.0000000001
 44
0.00000001
 40
0.0
 40
0.0
 40
0.0
 40
0.0
 40
0.3322087009690909
 40
0.6644174013945395
 40
0.6644174013945395
 40
0.6644174013945395
 40
0.6644174013945395
 10
-8.173833669161887
 20
131.3323086661721
 30
0.0
 10
-8.267561476441934
 20
131.3912799438153
 30
0.0
 10
-8.455017090503155
 20
131.5092224995543
 30
0.0
 10
-8.642472703873384
 20
131.6271650563915
 30
0.0
 10
-8.736200510309068
 20
131.6861363350365
 30
0.0
 11
-8.173833669161887
 21
131.3323086661721
 31
0.0
 11
-8.455017090656533
 21
131.5092224996508
 31
0.0
 11
-8.736200510309068
 21
131.6861363350365
 31
0.0
  0
SPLINE
  5
1FE
330
1F
100
AcDbEntity
  8
0
  6
Continuous
 62
     7
100
AcDbSpline
210
0.0
220
0.0
230
1.0
 70
     8
 71
     3
 72
     9
 73
     5
 74
     3
 42
0.000000001
 43
0.0000000001
 44
0.00000001
 40
0.0
 40
0.0
 40
0.0
 40
0.0
 40
0.214380738078894
 40
0.424431588758967
 40
0.424431588758967
 40
0.424431588758967
 40
0.424431588758967
 10
-9.766832555840807
 20
130.6146065818161
 30
0.0
 10
-9.747488094970558
 20
130.6834398417472
 30
0.0
 10
-9.709189896277323
 20
130.8197161283607
 30
0.0
 10
-9.683123221696615
 20
130.9588490514577
 30
0.0
 10
-9.670222855152538
 20
131.0277058248957
 30
0.0
 11
-9.766832555840807
 21
130.6146065818161
 31
0.0
 11
-9.71191977300181
 21
130.8218351688089
 31
0.0
 11
-9.670222855152538
 21
131.0277058248957
 31
0.0
  0
SPLINE
  5
1FF
330
1F
100
AcDbEntity
  8
0
  6
Continuous
 62
     7
100
AcDbSpline
210
0.0
220
0.0
230
1.0
 70
    24
 71
     3
 72
    11
 73
     7
 74
     5
 42
0.000000001
 43
0.0000000001
 44
0.00000001
 40
0.0
 40
0.0
 40
0.0
 40
0.0
 40
0.4663203877805096
 40
0.9326407754388073
 40
1.398961163136668
 40
1.86528155168314
 40
1.86528155168314
 40
1.86528155168314
 40
1.86528155168314
 10
-9.959830935492114
 20
130.1016338983129
 30
0.0
 10
-9.817153717214454
 20
130.0399504712926
 30
0.0
 10
-9.531799280700008
 20
129.9165836172602
 30
0.0
 10
-9.103767625941364
 20
129.7315333361994
 30
0.0
 10
-8.675735970951054
 20
129.5464830550311
 30
0.0
 10
-8.390381534195456
 20
129.4231162008799
 30
0.0
 10
-8.247704315687002
 20
129.36143277375
 30
0.0
 11
-9.959830935492114
 21
130.1016338983129
 31
0.0
 11
-9.53179928066097
 21
129.9165836172479
 31
0.0
 11
-9.103767625950788
 21
129.7315333362109
 31
0.0
 11
-8.67573597121077
 21
129.5464830551433
 31
0.0
 11
-8.247704315687002
 21
129.36143277375
 31
0.0
  0
SPLINE
  5
200
330
1F
100
AcDbEntity
  8
0
  6
Continuous
 62
     7
100
AcDbSpline
210
0.0
220
0.0
230
1.0
 70
     8
 71
     3
 72
    13
 73
     9
 74
     7
 42
0.000000001
 43
0.0000000001
 44
0.00000001
 40
0.0
 40
0.0
 40
0.0
 40
0.0
 40
0.1541810368353809
 40
0.3290408063281079
 40
0.4302626930853485
 40
0.5178765792749389
 40
0.6152828671716041
 40
0.7134771653870347
 40
0.7134771653870347
 40
0.7134771653870347
 40
0.7134771653870347
 10
-8.247704315687002
 20
129.36143277375
 30
0.0
 10
-8.200319462970558
 20
129.341525686667
 30
0.0
 10
-8.09919450379468
 20
129.299041591867
 30
0.0
 10
-7.965145846617085
 20
129.2479786386973
 30
0.0
 10
-7.851329364850955
 20
129.2062322178142
 30
0.0
 10
-7.76142141582497
 20
129.1742839938966
 30
0.0
 10
-7.672216652468533
 20
129.1433792652963
 30
0.0
 10
-7.610372981932427
 20
129.1227277612689
 30
0.0
 10
-7.579326570437758
 20
129.1123604171643
 30
0.0
 11
-8.247704315687002
 21
129.36143277375
 31
0.0
 11
-8.10524501204464
 21
129.3024655034316
 31
0.0
 11
-7.942049566026569
 21
129.2396707146525
 31
0.0
 11
-7.847008249019554
 21
129.2048423002142
 31
0.0
 11
-7.764460892513888
 21
129.1754803008978
 31
0.0
 11
-7.672406611856077
 21
129.1436370230792
 31
0.0
 11
-7.579326570437758
 21
129.1123604171643
 31
0.0
  0
SPLINE
  5
201
330
1F
100
AcDbEntity
  8
0
  6
Continuous
 62
     7
100
AcDbSpline
210
0.0
220
0.0
230
1.0
 70
     8
 71
     3
 72
    11
 73
     7
 74
     5
 42
0.000000001
 43
0.0000000001
 44
0.00000001
 40
0.0
 40
0.0
 40
0.0
 40
0.0
 40
0.4750490979000975
 40
0.9500981956826304
 40
1.425147293656763
 40
1.90019639336455
 40
1.90019639336455
 40
1.90019639336455
 40
1.90019639336455
 10
-9.78249925737132
 20
130.5664770337345
 30
0.0
 10
-9.64844379183681
 20
130.4821932308496
 30
0.0
 10
-9.38033286082969
 20
130.313625625055
 30
0.0
 10
-8.978166464274446
 20
130.0607742163509
 30
0.0
 10
-8.576000067108437
 20
129.8079228074861
 30
0.0
 10
-8.307889135335909
 20
129.6393552016568
 30
0.0
 10
-8.17383366915712
 20
129.5550713986646
 30
0.0
 11
-9.78249925737132
 21
130.5664770337345
 31
0.0
 11
-9.380332860770288
 21
130.3136256250758
 31
0.0
 11
-8.978166464289878
 21
130.0607742164463
 31
0.0
 11
-8.576000067612961
 21
129.8079228077693
 31
0.0
 11
-8.17383366915712
 21
129.5550713986646
 31
0.0
  0
SPLINE
  5
202
330
1F
100
AcDbEntity
  8
0
  6
Continuous
 62
     2
100
AcDbSpline
210
0.0
220
0.0
230
1.0
 70
     8
 71
     3
 72
    11
 73
     7
 74
     5
 42
0.000000001
 43
0.0000000001
 44
0.00000001
 40
0.0
 40
0.0
 40
0.0
 40
0.0
 40
0.5022765764883402
 40
0.9760927476397236
 40
1.415365231807757
 40
1.81937838463611
 40
1.81937838463611
 40
1.81937838463611
 40
1.81937838463611
 10
-8.17383366915712
 20
129.5550713986646
 30
0.0
 10
-8.124968187925024
 20
129.715684218939
 30
0.0
 10
-8.03000609548841
 20
130.0278090882927
 30
0.0
 10
-7.989030111119305
 20
130.5001551869543
 30
0.0
 10
-8.021836825544046
 20
130.943122504887
 30
0.0
 10
-8.124600293558936
 20
131.2062471904022
 30
0.0
 10
-8.173833669161887
 20
131.3323086661721
 30
0.0
 11
-8.17383366915712
 21
129.5550713986646
 31
0.0
 11
-8.044899711012683
 21
130.0405173723576
 31
0.0
 11
-8.00127240390152
 21
130.5123207465223
 31
0.0
 11
-8.044899711013354
 21
130.9494213936634
 31
0.0
 11
-8.173833669161887
 21
131.3323086661721
 31
0.0
  0
SPLINE
  5
203
330
1F
100
AcDbEntity
  8
0
  6
Continuous
 62
     7
100
AcDbSpline
210
0.0
220
0.0
230
1.0
 70
     8
 71
     3
 72
    11
 73
     7
 74
     5
 42
0.000000001
 43
0.0000000001
 44
0.00000001
 40
0.0
 40
0.0
 40
0.0
 40
0.0
 40
0.6574407528041012
 40
1.301629302460522
 40
1.917835126012126
 40
2.495020205441707
 40
2.495020205441707
 40
2.495020205441707
 40
2.495020205441707
 10
-7.300806828900647
 20
129.0201310804035
 30
0.0
 10
-7.39088213792046
 20
128.8197895785044
 30
0.0
 10
-7.569217097946167
 20
128.423144916859
 30
0.0
 10
-7.942215531214462
 20
127.9003103296967
 30
0.0
 10
-8.366270116502713
 20
127.4517822237278
 30
0.0
 10
-8.702281484741627
 20
127.2364011165573
 30
0.0
 10
-8.864793829059096
 20
127.1322317668243
 30
0.0
 11
-7.300806828900647
 21
129.0201310804035
 31
0.0
 11
-7.59012007627323
 21
128.4297700141171
 31
0.0
 11
-7.95960245993118
 21
127.9020753507352
 31
0.0
 11
-8.391435751017571
 21
127.4624964292619
 31
0.0
 11
-8.864793829059096
 21
127.1322317668243
 31
0.0
  0
SPLINE
  5
204
330
1F
100
AcDbEntity
  8
0
  6
Continuous
 62
     7
100
AcDbSpline
210
0.0
220
0.0
230
1.0
 70
     8
 71
     3
 72
    11
 73
     7
 74
     5
 42
0.000000001
 43
0.0000000001
 44
0.00000001
 40
0.0
 40
0.0
 40
0.0
 40
0.0
 40
0.7227773084774316
 40
1.431036090388989
 40
2.108091179795066
 40
2.741497826442427
 40
2.741497826442427
 40
2.741497826442427
 40
2.741497826442427
 10
-7.130273364443944
 20
128.9804060894155
 30
0.0
 10
-7.228466602386304
 20
128.7597635945474
 30
0.0
 10
-7.422880670568082
 20
128.3229106874424
 30
0.0
 10
-7.832327572281058
 20
127.7477106443476
 30
0.0
 10
-8.298724098419887
 20
127.2552382372271
 30
0.0
 10
-8.668916337662061
 20
127.0205476866156
 30
0.0
 10
-8.847847338810034
 20
126.9071109163938
 30
0.0
 11
-7.130273364443944
 21
128.9804060894155
 31
0.0
 11
-7.446161682020264
 21
128.3303125509722
 31
0.0
 11
-7.851717026994258
 21
127.7496617379655
 31
0.0
 11
-8.32680728605439
 21
127.2672792728484
 31
0.0
 11
-8.847847338810034
 21
126.9071109163938
 31
0.0
  0
SPLINE
  5
205
330
1F
100
AcDbEntity
  8
0
  6
Continuous
 62
     7
100
AcDbSpline
210
0.0
220
0.0
230
1.0
 70
     8
 71
     3
 72
    29
 73
    25
 74
    23
 42
0.000000001
 43
0.0000000001
 44
0.00000001
 40
0.0
 40
0.0
 40
0.0
 40
0.0
 40
0.536764806335683
 40
1.027804602081971
 40
1.481869757646403
 40
1.914954894048491
 40
2.469167099337914
 40
3.065459201129598
 40
3.730893182686696
 40
4.473581298627568
 40
5.286212694605595
 40
6.150855500736738
 40
7.043055412645375
 40
7.935255324553963
 40
8.799898130685163
 40
9.612529526663238
 40
10.35521764260409
 40
11.02065162416115
 40
11.61694372595286
 40
12.17115593124232
 40
12.60424106764441
 40
13.05830622320887
 40
13.54934601895518
 40
14.08611082529078
 40
14.08611082529078
 40
14.08611082529078
 40
14.08611082529078
 10
-21.35581523657799
 20
132.2202393364232
 30
0.0
 10
-21.51847712618712
 20
132.144462287794
 30
0.0
 10
-21.82994434161457
 20
131.9993633615592
 30
0.0
 10
-22.31987101535224
 20
131.9036028559994
 30
0.0
 10
-22.78362652882674
 20
131.9209943958693
 30
0.0
 10
-23.24661245618147
 20
132.072655464527
 30
0.0
 10
-23.67562374840197
 20
132.4006881746067
 30
0.0
 10
-24.00836509887996
 20
132.9180774414203
 30
0.0
 10
-24.20416656639981
 20
133.5638221675796
 30
0.0
 10
-24.26046801647817
 20
134.3066793704787
 30
0.0
 10
-24.17742208183827
 20
135.1126797786383
 30
0.0
 10
-23.95980048181506
 20
135.9441865129979
 30
0.0
 10
-23.6182646866036
 20
136.7614677271231
 30
0.0
 10
-23.16936119243028
 20
137.5250650917675
 30
0.0
 10
-22.63472876495648
 20
138.1980664124018
 30
0.0
 10
-22.03975599921272
 20
138.7481034050095
 30
0.0
 10
-21.41168936684652
 20
139.1487765666863
 30
0.0
 10
-20.77761270540707
 20
139.379582228366
 30
0.0
 10
-20.16405648166946
 20
139.4238227080718
 30
0.0
 10
-19.6442235382733
 20
139.2774333003433
 30
0.0
 10
-19.24510312693445
 20
138.998041199654
 30
0.0
 10
-18.95293658695381
 20
138.6374717127963
 30
0.0
 10
-18.735588987159
 20
138.1880740704703
 30
0.0
 10
-18.66478779889037
 20
137.8518409423875
 30
0.0
 10
-18.62781230402825
 20
137.6762452015227
 30
0.0
 11
-21.35581523657799
 21
132.2202393364232
 31
0.0
 11
-21.85153012221631
 21
132.0143674833092
 31
0.0
 11
-22.33359604774201
 21
131.9209195017557
 31
0.0
 11
-22.78713467854078
 21
131.9427798850405
 31
0.0
 11
-23.19814831089426
 21
132.079273584269
 31
0.0
 11
-23.64081670103988
 21
132.4127340255991
 31
0.0
 11
-23.9715876812846
 21
132.908873955982
 31
0.0
 11
-24.17387402548282
 21
133.542816082647
 31
0.0
 11
-24.23753334954342
 21
134.2827708981251
 31
0.0
 11
-24.15937235644659
 21
135.0916346971488
 31
0.0
 11
-23.94331151446248
 21
135.9288472715664
 31
0.0
 11
-23.60018392733511
 21
136.7524273474889
 31
0.0
 11
-23.14719641887358
 21
137.5210774627443
 31
0.0
 11
-22.60706286452993
 21
138.1962536809822
 31
0.0
 11
-22.00686842116901
 21
138.7441007548739
 31
0.0
 11
-21.37670897435017
 21
139.1371461849123
 31
0.0
 11
-20.74818346649926
 21
139.3556823855527
 31
0.0
 11
-20.15280893404612
 21
139.3887495595866
 31
0.0
 11
-19.6204395468946
 21
139.2346911122683
 31
0.0
 11
-19.26463640809977
 21
138.9877764259225
 31
0.0
 11
-18.97502492299268
 21
138.6380617512544
 31
0.0
 11
-18.76054375292003
 21
138.1963402219017
 31
0.0
 11
-18.62781230402825
 21
137.6762452015227
 31
0.0
  0
SPLINE
  5
206
330
1F
100
AcDbEntity
  8
0
  6
Continuous
 62
     7
100
AcDbSpline
210
0.0
220
0.0
230
1.0
 70
     8
 71
     3
 72
    11
 73
     7
 74
     5
 42
0.000000001
 43
0.0000000001
 44
0.00000001
 40
0.0
 40
0.0
 40
0.0
 40
0.0
 40
0.0010542107145712
 40
0.0021084215553225
 40
0.0031626325227506
 40
0.00421684361681
 40
0.00421684361681
 40
0.00421684361681
 40
0.00421684361681
 10
-11.15624560169151
 20
133.5134779200423
 30
0.0
 10
-11.15627961973568
 20
133.5131281669254
 30
0.0
 10
-11.1563476557578
 20
133.5124286606431
 30
0.0
 10
-11.15644970958604
 20
133.5113794011359
 30
0.0
 10
-11.15655176321528
 20
133.5103301414824
 30
0.0
 10
-11.15661979883125
 20
133.509630634991
 30
0.0
 10
-11.15665381660602
 20
133.5092808817208
 30
0.0
 11
-11.15624560169151
 21
133.5134779200423
 31
0.0
 11
-11.15634765577123
 21
133.5124286606866
 31
0.0
 11
-11.15644970961693
 21
133.5113794011813
 31
0.0
 11
-11.15655176322877
 21
133.510330141526
 31
0.0
 11
-11.15665381660602
 21
133.5092808817208
 31
0.0
  0
SPLINE
  5
207
330
1F
100
AcDbEntity
  8
0
  6
Continuous
 62
     7
100
AcDbSpline
210
0.0
220
0.0
230
1.0
 70
     8
 71
     3
 72
     9
 73
     5
 74
     3
 42
0.000000001
 43
0.0000000001
 44
0.00000001
 40
0.0
 40
0.0
 40
0.0
 40
0.0
 40
0.0147625136219527
 40
0.0295247780609499
 40
0.0295247780609499
 40
0.0295247780609499
 40
0.0295247780609499
 10
-11.1816741382213
 20
133.5249555755223
 30
0.0
 10
-11.17750401859204
 20
133.5223431537222
 30
0.0
 10
-11.16916386034073
 20
133.5171183372696
 30
0.0
 10
-11.16082380418215
 20
133.5118933578539
 30
0.0
 10
-11.15665381660602
 20
133.5092808817208
 30
0.0
 11
-11.1816741382213
 21
133.5249555755223
 31
0.0
 11
-11.16916381016616
 21
133.5171182609061
 31
0.0
 11
-11.15665381660602
 21
133.5092808817208
 31
0.0
  0
SPLINE
  5
208
330
1F
100
AcDbEntity
  8
0
  6
Continuous
 62
     7
100
AcDbSpline
210
0.0
220
0.0
230
1.0
 70
     8
 71
     3
 72
    11
 73
     7
 74
     5
 42
0.000000001
 43
0.0000000001
 44
0.00000001
 40
0.0
 40
0.0
 40
0.0
 40
0.0
 40
0.7418807935149
 40
1.483761570992919
 40
2.225642345730612
 40
2.967523120390457
 40
2.967523120390457
 40
2.967523120390457
 40
2.967523120390457
 10
-10.6727904614918
 20
129.7140854065173
 30
0.0
 10
-10.90258111521894
 20
129.8054658146553
 30
0.0
 10
-11.36216241706206
 20
129.9882266305751
 30
0.0
 10
-12.05153436515188
 20
130.2623678565053
 30
0.0
 10
-12.74090630664811
 20
130.5365090820077
 30
0.0
 10
-13.20048760029561
 20
130.7192698990563
 30
0.0
 10
-13.43027824717809
 20
130.8106503073977
 30
0.0
 11
-10.6727904614918
 21
129.7140854065173
 31
0.0
 11
-11.36216242213575
 21
129.9882266322828
 31
0.0
 11
-12.05153436577712
 21
130.262367857405
 31
0.0
 11
-12.74090630651683
 21
130.536509082408
 31
0.0
 11
-13.43027824717809
 21
130.8106503073977
 31
0.0
  0
SPLINE
  5
209
330
1F
100
AcDbEntity
  8
0
  6
Continuous
 62
     7
100
AcDbSpline
210
0.0
220
0.0
230
1.0
 70
     8
 71
     3
 72
     9
 73
     5
 74
     3
 42
0.000000001
 43
0.0000000001
 44
0.00000001
 40
0.0
 40
0.0
 40
0.0
 40
0.0
 40
0.0003495015614208
 40
0.0006989949947183
 40
0.0006989949947183
 40
0.0006989949947183
 40
0.0006989949947183
 10
-13.00509132644022
 20
130.7328409947498
 30
0.0
 10
-13.00512590116453
 20
130.7327297429645
 30
0.0
 10
-13.00519504219406
 20
130.7325072396148
 30
0.0
 10
-13.00526416799334
 20
130.7322847315332
 30
0.0
 10
-13.00529872668356
 20
130.7321734776031
 30
0.0
 11
-13.00509132644022
 21
130.7328409947498
 31
0.0
 11
-13.00519504299795
 21
130.7325072370274
 31
0.0
 11
-13.00529872668356
 21
130.7321734776031
 31
0.0
  0
SPLINE
  5
20A
330
1F
100
AcDbEntity
  8
0
  6
Continuous
 62
     7
100
AcDbSpline
210
0.0
220
0.0
230
1.0
 70
     8
 71
     3
 72
    11
 73
     7
 74
     5
 42
0.000000001
 43
0.0000000001
 44
0.00000001
 40
0.0
 40
0.0
 40
0.0
 40
0.0
 40
0.0262863455030593
 40
0.0525717751663553
 40
0.0788563394494308
 40
0.1051400850789589
 40
0.1051400850789589
 40
0.1051400850789589
 40
0.1051400850789589
 10
-13.00529872668356
 20
130.7321734776031
 30
0.0
 10
-13.01393726350424
 20
130.7336398826666
 30
0.0
 10
-13.03121403868157
 20
130.7365726269146
 30
0.0
 10
-13.05712880363577
 20
130.7409714510985
 30
0.0
 10
-13.08304274287144
 20
130.7453699612607
 30
0.0
 10
-13.10031844435897
 20
130.7483021286446
 30
0.0
 10
-13.10895616183931
 20
130.7497681821108
 30
0.0
 11
-13.00529872668356
 21
130.7321734776031
 31
0.0
 11
-13.03121434416061
 21
130.7365726514678
 31
0.0
 11
-13.05712909113551
 21
130.7409714810638
 31
0.0
 11
-13.08304301555252
 21
130.7453699854533
 31
0.0
 11
-13.10895616183931
 21
130.7497681821108
 31
0.0
  0
SPLINE
  5
20B
330
1F
100
AcDbEntity
  8
0
  6
Continuous
 62
     7
100
AcDbSpline
210
0.0
220
0.0
230
1.0
 70
    24
 71
     3
 72
    11
 73
     7
 74
     5
 42
0.000000001
 43
0.0000000001
 44
0.00000001
 40
0.0
 40
0.0
 40
0.0
 40
0.0
 40
0.5444175873976637
 40
1.088835174699958
 40
1.632739217010623
 40
2.17664325922625
 40
2.17664325922625
 40
2.17664325922625
 40
2.17664325922625
 10
-10.98270929517648
 20
129.927870851802
 30
0.0
 10
-11.15133756845471
 20
129.994928918289
 30
0.0
 10
-11.48859411497952
 20
130.1290450512565
 30
0.0
 10
-11.99431986897121
 20
130.3301559953507
 30
0.0
 10
-12.49988655712315
 20
130.5312036840704
 30
0.0
 10
-12.83682497202741
 20
130.6651933063124
 30
0.0
 10
-13.00529417946377
 20
130.7321881174302
 30
0.0
 11
-10.98270929517648
 21
129.927870851802
 31
0.0
 11
-11.48859411500958
 21
130.1290450512668
 31
0.0
 11
-11.99447893474676
 21
130.3302192507148
 31
0.0
 11
-12.49988655715311
 21
130.5312036840808
 31
0.0
 11
-13.00529417946377
 21
130.7321881174302
 31
0.0
  0
SPLINE
  5
20C
330
1F
100
AcDbEntity
  8
0
  6
Continuous
 62
     7
100
AcDbSpline
210
0.0
220
0.0
230
1.0
 70
     8
 71
     3
 72
    15
 73
    11
 74
     9
 42
0.000000001
 43
0.0000000001
 44
0.00000001
 40
0.0
 40
0.0
 40
0.0
 40
0.0
 40
0.2241186328137567
 40
0.4083757759245794
 40
0.6007354271494308
 40
0.7857141365486724
 40
0.9770141128511629
 40
1.137699626197043
 40
1.310306757938986
 40
1.482919116279774
 40
1.482919116279774
 40
1.482919116279774
 40
1.482919116279774
 10
-11.15665381660602
 20
133.5092808817208
 30
0.0
 10
-11.08666332645713
 20
133.5356061720842
 30
0.0
 10
-10.9591307720416
 20
133.5835745531548
 30
0.0
 10
-10.76389364759738
 20
133.6300487388397
 30
0.0
 10
-10.57803867366125
 20
133.655257860136
 30
0.0
 10
-10.38803374986099
 20
133.6578936468192
 30
0.0
 10
-10.20962225233746
 20
133.6367690119079
 30
0.0
 10
-10.04014759908918
 20
133.5923299518176
 30
0.0
 10
-9.882866944839591
 20
133.5291110031254
 30
0.0
 10
-9.78537959474946
 20
133.4676063571596
 30
0.0
 10
-9.73663518537898
 20
133.4368535623819
 30
0.0
 11
-11.15665381660602
 21
133.5092808817208
 31
0.0
 11
-10.94511970127807
 21
133.583324647016
 31
0.0
 11
-10.76599109775879
 21
133.6264945242988
 31
0.0
 11
-10.57528230342953
 21
133.6516419192772
 31
0.0
 11
-10.39031695634508
 21
133.6538653613201
 31
0.0
 11
-10.20040682536923
 21
133.630847463239
 31
0.0
 11
-10.04494177609801
 21
133.5902216938283
 31
0.0
 11
-9.88532795059579
 21
133.524520480937
 31
0.0
 11
-9.73663518537898
 21
133.4368535623819
 31
0.0
  0
SPLINE
  5
20D
330
1F
100
AcDbEntity
  8
0
  6
Continuous
 62
     7
100
AcDbSpline
210
0.0
220
0.0
230
1.0
 70
     8
 71
     3
 72
    13
 73
     9
 74
     7
 42
0.000000001
 43
0.0000000001
 44
0.00000001
 40
0.0
 40
0.0
 40
0.0
 40
0.0
 40
0.136121478576944
 40
0.2712169172607338
 40
0.5747453101669091
 40
0.8894143920162692
 40
1.224317252471704
 40
1.585364484196701
 40
1.585364484196701
 40
1.585364484196701
 40
1.585364484196701
 10
-9.65218998368045
 20
133.3786581932397
 30
0.0
 10
-9.688298813131285
 20
133.4062159385903
 30
0.0
 10
-9.76024430358251
 20
133.4611236964555
 30
0.0
 10
-9.927477038126957
 20
133.5555675306079
 30
0.0
 10
-10.16675232727947
 20
133.6403323360638
 30
0.0
 10
-10.48559856511481
 20
133.6700474777811
 30
0.0
 10
-10.82334298481118
 20
133.6316602800318
 30
0.0
 10
-11.04253333009953
 20
133.5538464411599
 30
0.0
 10
-11.15624560169151
 20
133.5134779200423
 30
0.0
 11
-9.65218998368045
 21
133.3786581932397
 31
0.0
 11
-9.762272202851195
 21
133.4587266807107
 31
0.0
 11
-9.879578111611252
 21
133.5257349030642
 31
0.0
 11
-10.16573171968139
 21
133.6269554525666
 31
0.0
 11
-10.47877776802061
 21
133.658874158095
 31
0.0
 11
-10.81150422888489
 21
133.6207555432383
 31
0.0
 11
-11.15624560169151
 21
133.5134779200423
 31
0.0
  0
SPLINE
  5
20E
330
1F
100
AcDbEntity
  8
0
  6
Continuous
 62
     7
100
AcDbSpline
210
0.0
220
0.0
230
1.0
 70
     8
 71
     3
 72
     9
 73
     5
 74
     3
 42
0.000000001
 43
0.0000000001
 44
0.00000001
 40
0.0
 40
0.0
 40
0.0
 40
0.0
 40
0.1950571643396313
 40
0.4255809599636707
 40
0.4255809599636707
 40
0.4255809599636707
 40
0.4255809599636707
 10
-9.669349566949869
 20
131.0286789141532
 30
0.0
 10
-9.68132798667485
 20
130.964739561755
 30
0.0
 10
-9.707462844222139
 20
130.825234969645
 30
0.0
 10
-9.74597287504198
 20
130.6886113103407
 30
0.0
 10
-9.766832555840807
 20
130.6146065818161
 30
0.0
 11
-9.669349566949869
 21
131.0286789141532
 31
0.0
 11
-9.707884459522099
 21
130.8374660497033
 31
0.0
 11
-9.766832555840807
 21
130.6146065818161
 31
0.0
  0
SPLINE
  5
20F
330
1F
100
AcDbEntity
  8
0
  6
Continuous
 62
     7
100
AcDbSpline
210
0.0
220
0.0
230
1.0
 70
     8
 71
     3
 72
     9
 73
     5
 74
     3
 42
0.000000001
 43
0.0000000001
 44
0.00000001
 40
0.0
 40
0.0
 40
0.0
 40
0.0
 40
0.0003566189693677
 40
0.0007132360034977
 40
0.0007132360034977
 40
0.0007132360034977
 40
0.0007132360034977
 10
-9.958871903421823
 20
130.1012378241171
 30
0.0
 10
-9.958822733053129
 20
130.1013460510203
 30
0.0
 10
-9.958724399697788
 20
130.1015625074717
 30
0.0
 10
-9.958626080573064
 20
130.1017789703872
 30
0.0
 10
-9.958576924701752
 20
130.1018872031673
 30
0.0
 11
-9.958871903421823
 21
130.1012378241171
 31
0.0
 11
-9.958724399431002
 21
130.101562508059
 31
0.0
 11
-9.958576924701752
 21
130.1018872031673
 31
0.0
  0
SPLINE
  5
210
330
1F
100
AcDbEntity
  8
0
  6
Continuous
 62
     7
100
AcDbSpline
210
0.0
220
0.0
230
1.0
 70
     8
 71
     3
 72
    11
 73
     7
 74
     5
 42
0.000000001
 43
0.0000000001
 44
0.00000001
 40
0.0
 40
0.0
 40
0.0
 40
0.0
 40
0.0347600728238966
 40
0.0695195131382663
 40
0.1042782857713013
 40
0.1390363507123977
 40
0.1390363507123977
 40
0.1390363507123977
 40
0.1390363507123977
 10
-9.823411095753919
 20
130.0693095190306
 30
0.0
 10
-9.834675211524456
 20
130.0720244965402
 30
0.0
 10
-9.857203241613483
 20
130.0774543875741
 30
0.0
 10
-9.890995009560122
 20
130.0855989744259
 30
0.0
 10
-9.92478616486384
 20
130.0937432467114
 30
0.0
 10
-9.947313413361206
 20
130.0991725742999
 30
0.0
 10
-9.958576924701752
 20
130.1018872031673
 30
0.0
 11
-9.823411095753919
 21
130.0693095190306
 31
0.0
 11
-9.857203451180816
 21
130.0774544178898
 31
0.0
 11
-9.890995229918325
 21
130.0855990100052
 31
0.0
 11
-9.92478639993016
 21
130.0937432781853
 31
0.0
 11
-9.958576924701752
 21
130.1018872031673
 31
0.0
  0
SPLINE
  5
211
330
1F
100
AcDbEntity
  8
0
  6
Continuous
 62
     7
100
AcDbSpline
210
0.0
220
0.0
230
1.0
 70
    24
 71
     3
 72
     9
 73
     5
 74
     3
 42
0.000000001
 43
0.0000000001
 44
0.00000001
 40
0.0
 40
0.0
 40
0.0
 40
0.0
 40
0.0005188006389833
 40
0.0010376016964279
 40
0.0010376016964279
 40
0.0010376016964279
 40
0.0010376016964279
 10
-9.959830935492114
 20
130.1016338983129
 30
0.0
 10
-9.959671096872114
 20
130.1015678859883
 30
0.0
 10
-9.959351419509249
 20
130.1014358612711
 30
0.0
 10
-9.959031742158587
 20
130.1013038365244
 30
0.0
 10
-9.958871903421823
 20
130.1012378241171
 30
0.0
 11
-9.959830935492114
 21
130.1016338983129
 31
0.0
 11
-9.959351419638185
 21
130.1014358613243
 31
0.0
 11
-9.958871903421823
 21
130.1012378241171
 31
0.0
  0
SPLINE
  5
212
330
1F
100
AcDbEntity
  8
0
  6
Continuous
 62
     7
100
AcDbSpline
210
0.0
220
0.0
230
1.0
 70
     8
 71
     3
 72
    11
 73
     7
 74
     5
 42
0.000000001
 43
0.0000000001
 44
0.00000001
 40
0.0
 40
0.0
 40
0.0
 40
0.0
 40
0.0347942544577826
 40
0.0695878196302064
 40
0.1043806573514119
 40
0.1391727239082982
 40
0.1391727239082982
 40
0.1391727239082982
 40
0.1391727239082982
 10
-9.823411095753919
 20
130.0693095190306
 30
0.0
 10
-9.834699827781591
 20
130.0719703648891
 30
0.0
 10
-9.857277071644818
 20
130.0772919892939
 30
0.0
 10
-9.891142619202009
 20
130.0852742183548
 30
0.0
 10
-9.92500748621157
 20
130.0932561557883
 30
0.0
 10
-9.947583846604411
 20
130.098577292531
 30
0.0
 10
-9.958871903421823
 20
130.1012378241171
 30
0.0
 11
-9.823411095753919
 21
130.0693095190306
 31
0.0
 11
-9.857277297916742
 21
130.077292030812
 31
0.0
 11
-9.891142857807779
 21
130.0852742629984
 31
0.0
 11
-9.92500773989908
 21
130.0932561999588
 31
0.0
 11
-9.958871903421823
 21
130.1012378241171
 31
0.0
  0
SPLINE
  5
213
330
1F
100
AcDbEntity
  8
0
  6
Continuous
 62
     7
100
AcDbSpline
210
0.0
220
0.0
230
1.0
 70
     8
 71
     3
 72
    11
 73
     7
 74
     5
 42
0.000000001
 43
0.0000000001
 44
0.00000001
 40
0.0
 40
0.0
 40
0.0
 40
0.0
 40
0.0126962663015968
 40
0.0253427025663055
 40
0.0379847971361451
 40
0.050615608695636
 40
0.050615608695636
 40
0.050615608695636
 40
0.050615608695636
 10
-9.78249925737132
 20
130.5664770337345
 30
0.0
 10
-9.781164721523782
 20
130.570493205125
 30
0.0
 10
-9.778500901810256
 20
130.5785097900318
 30
0.0
 10
-9.774563403996575
 20
130.5905436208447
 30
0.0
 10
-9.77066949765453
 20
130.602568696326
 30
0.0
 10
-9.76811115096272
 20
130.6105951462579
 30
0.0
 10
-9.766832555840807
 20
130.6146065818161
 30
0.0
 11
-9.78249925737132
 21
130.5664770337345
 31
0.0
 11
-9.77850489063167
 21
130.5785285984785
 31
0.0
 11
-9.774569083119495
 21
130.5905469914802
 31
0.0
 11
-9.770677564588032
 21
130.6025752348913
 31
0.0
 11
-9.766832555840807
 21
130.6146065818161
 31
0.0
  0
SPLINE
  5
214
330
1F
100
AcDbEntity
  8
0
  6
Continuous
 62
     7
100
AcDbSpline
210
0.0
220
0.0
230
1.0
 70
    24
 71
     3
 72
     9
 73
     5
 74
     3
 42
0.000000001
 43
0.0000000001
 44
0.00000001
 40
0.0
 40
0.0
 40
0.0
 40
0.0
 40
0.0010108041663299
 40
0.0020216077072648
 40
0.0020216077072648
 40
0.0020216077072648
 40
0.0020216077072648
 10
-9.779834894809149
 20
130.5648018867489
 30
0.0
 10
-9.780162450666927
 20
130.5648808308241
 30
0.0
 10
-9.780817562189341
 20
130.5650387188859
 30
0.0
 10
-9.781472673730885
 20
130.5651966068685
 30
0.0
 10
-9.781800229405086
 20
130.5652755508156
 30
0.0
 11
-9.779834894809149
 21
130.5648018867489
 31
0.0
 11
-9.780817562392013
 21
130.5650387189347
 31
0.0
 11
-9.781800229405086
 21
130.5652755508156
 31
0.0
  0
SPLINE
  5
215
330
1F
100
AcDbEntity
  8
0
  6
Continuous
 62
     7
100
AcDbSpline
210
0.0
220
0.0
230
1.0
 70
     8
 71
     3
 72
     9
 73
     5
 74
     3
 42
0.000000001
 43
0.0000000001
 44
0.00000001
 40
0.0
 40
0.0
 40
0.0
 40
0.0
 40
0.0003337643999213
 40
0.0006675213872305
 40
0.0006675213872305
 40
0.0006675213872305
 40
0.0006675213872305
 10
-9.781800229405086
 20
130.5652755508156
 30
0.0
 10
-9.78176721138307
 20
130.5653817931837
 30
0.0
 10
-9.781701183017033
 20
130.5655942777181
 30
0.0
 10
-9.78163516854042
 20
130.5658067665682
 30
0.0
 10
-9.781602165141003
 20
130.5659130108922
 30
0.0
 11
-9.781800229405086
 21
130.5652755508156
 31
0.0
 11
-9.781701182283879
 21
130.5655942800777
 31
0.0
 11
-9.781602165141003
 21
130.5659130108922
 31
0.0
  0
SPLINE
  5
216
330
1F
100
AcDbEntity
  8
0
  6
Continuous
 62
     7
100
AcDbSpline
210
0.0
220
0.0
230
1.0
 70
     8
 71
     3
 72
    11
 73
     7
 74
     5
 42
0.000000001
 43
0.0000000001
 44
0.00000001
 40
0.0
 40
0.0
 40
0.0
 40
0.0
 40
0.0342980437144283
 40
0.0685960847689202
 40
0.102894122112125
 40
0.1371921484483444
 40
0.1371921484483444
 40
0.1371921484483444
 40
0.1371921484483444
 10
-10.53764063339916
 20
129.6905013109781
 30
0.0
 10
-10.54890312124406
 20
129.6924666526371
 30
0.0
 10
-10.57142809610833
 20
129.696397335528
 30
0.0
 10
-10.60521555678251
 20
129.7022933593854
 30
0.0
 10
-10.63900301167267
 20
129.7081893826912
 30
0.0
 10
-10.66152797945675
 20
129.7121200652619
 30
0.0
 10
-10.6727904614918
 20
129.7140854065173
 30
0.0
 11
-10.53764063339916
 21
129.6905013109781
 31
0.0
 11
-10.5714280969469
 21
129.6963973358803
 31
0.0
 11
-10.6052155579471
 21
129.702293359908
 31
0.0
 11
-10.63900301530135
 21
129.7081893832399
 31
0.0
 11
-10.6727904614918
 21
129.7140854065173
 31
0.0
  0
SPLINE
  5
217
330
1F
100
AcDbEntity
  8
0
  6
Continuous
 62
     7
100
AcDbSpline
210
0.0
220
0.0
230
1.0
 70
     8
 71
     3
 72
    11
 73
     7
 74
     5
 42
0.000000001
 43
0.0000000001
 44
0.00000001
 40
0.0
 40
0.0
 40
0.0
 40
0.0
 40
0.0343661184007487
 40
0.0687322546849265
 40
0.1030983957696241
 40
0.1374645394262593
 40
0.1374645394262593
 40
0.1374645394262593
 40
0.1374645394262593
 10
-10.63700073911492
 20
129.807901733876
 30
0.0
 10
-10.62569685205881
 20
129.8060449346366
 30
0.0
 10
-10.60308907220639
 20
129.8023313343264
 30
0.0
 10
-10.56917739823932
 20
129.7967609310992
 30
0.0
 10
-10.53526571620207
 20
129.7911905250638
 30
0.0
 10
-10.51265792693761
 20
129.7874769202423
 30
0.0
 10
-10.50135403189038
 20
129.7856201177135
 30
0.0
 11
-10.63700073911492
 21
129.807901733876
 31
0.0
 11
-10.60308907806333
 21
129.8023313354471
 31
0.0
 11
-10.56917739984041
 21
129.7967609312241
 31
0.0
 11
-10.53526571706471
 21
129.7911905251012
 31
0.0
 11
-10.50135403189038
 21
129.7856201177135
 31
0.0
  0
SPLINE
  5
218
330
1F
100
AcDbEntity
  8
0
  6
Continuous
 62
     7
100
AcDbSpline
210
0.0
220
0.0
230
1.0
 70
     8
 71
     3
 72
    11
 73
     7
 74
     5
 42
0.000000001
 43
0.0000000001
 44
0.00000001
 40
0.0
 40
0.0
 40
0.0
 40
0.0
 40
0.0169914861397843
 40
0.0336533521894508
 40
0.050656080634561
 40
0.0672891702092827
 40
0.0672891702092827
 40
0.0672891702092827
 40
0.0672891702092827
 10
-10.53764063339916
 20
129.6905013109781
 30
0.0
 10
-10.54185826645002
 20
129.6942815923461
 30
0.0
 10
-10.55021170417703
 20
129.7017688320064
 30
0.0
 10
-10.5627839386159
 20
129.7130406691328
 30
0.0
 10
-10.57526605961059
 20
129.7242340547807
 30
0.0
 10
-10.58361206945702
 20
129.731720823361
 30
0.0
 10
-10.58773921039774
 20
129.7354230755065
 30
0.0
 11
-10.53764063339916
 21
129.6905013109781
 31
0.0
 11
-10.55029325450015
 21
129.7018424652636
 31
0.0
 11
-10.56269915652041
 21
129.7129650268103
 31
0.0
 11
-10.57535748584483
 21
129.7243166554748
 31
0.0
 11
-10.58773921039774
 21
129.7354230755065
 31
0.0
  0
SPLINE
  5
219
330
1F
100
AcDbEntity
  8
0
  6
Continuous
 62
     7
100
AcDbSpline
210
0.0
220
0.0
230
1.0
 70
     8
 71
     3
 72
    11
 73
     7
 74
     5
 42
0.000000001
 43
0.0000000001
 44
0.00000001
 40
0.0
 40
0.0
 40
0.0
 40
0.0
 40
0.0130087583231476
 40
0.0259932788252533
 40
0.0390855820527619
 40
0.0519668608205501
 40
0.0519668608205501
 40
0.0519668608205501
 40
0.0519668608205501
 10
-9.959830935492114
 20
130.1016338983129
 30
0.0
 10
-9.961547542259389
 20
130.097651889859
 30
0.0
 10
-9.964977571188712
 20
130.0896952981489
 30
0.0
 10
-9.970188021849701
 20
130.0777540002657
 30
0.0
 10
-9.975416635088955
 20
130.0658670511591
 30
0.0
 10
-9.97893742393608
 20
130.0579573886846
 30
0.0
 10
-9.980683522727809
 20
130.0540346918267
 30
0.0
 11
-9.959830935492114
 21
130.1016338983129
 31
0.0
 11
-9.964989552510836
 21
130.0896916847833
 31
0.0
 11
-9.970179478862477
 21
130.0777894817082
 31
0.0
 11
-9.975453800790874
 21
130.0658065800177
 31
0.0
 11
-9.980683522727809
 21
130.0540346918267
 31
0.0
  0
SPLINE
  5
21A
330
1F
100
AcDbEntity
  8
0
  6
Continuous
 62
     7
100
AcDbSpline
210
0.0
220
0.0
230
1.0
 70
     8
 71
     3
 72
    13
 73
     9
 74
     7
 42
0.000000001
 43
0.0000000001
 44
0.00000001
 40
0.0
 40
0.0
 40
0.0
 40
0.0
 40
0.0623416532838328
 40
0.1587315235528292
 40
0.2188969728341282
 40
0.2863255511197352
 40
0.367031449064946
 40
0.4404566692556778
 40
0.4404566692556778
 40
0.4404566692556778
 40
0.4404566692556778
 10
-10.58773921039774
 20
129.7354230755065
 30
0.0
 10
-10.60459119400751
 20
129.747630772321
 30
0.0
 10
-10.64749897166333
 20
129.7787134439842
 30
0.0
 10
-10.71335995153332
 20
129.8107946202664
 30
0.0
 10
-10.78075627124095
 20
129.8427978905961
 30
0.0
 10
-10.84429241459921
 20
129.8708539155701
 30
0.0
 10
-10.91231629856808
 20
129.8996095045995
 30
0.0
 10
-10.9599957072953
 20
129.9187518063078
 30
0.0
 10
-10.98270929517648
 20
129.927870851802
 30
0.0
 11
-10.58773921039774
 21
129.7354230755065
 31
0.0
 11
-10.63904341469849
 21
129.7708400274852
 31
0.0
 11
-10.72426031185923
 21
129.8158854268032
 31
0.0
 11
-10.77868782497464
 21
129.8415277171021
 31
0.0
 11
-10.84030393885853
 21
129.8689150804256
 31
0.0
 11
-10.91464969512972
 21
129.9003181148566
 31
0.0
 11
-10.98270929517648
 21
129.927870851802
 31
0.0
  0
SPLINE
  5
21B
330
1F
100
AcDbEntity
  8
0
  6
Continuous
 62
     7
100
AcDbSpline
210
0.0
220
0.0
230
1.0
 70
     8
 71
     3
 72
    13
 73
     9
 74
     7
 42
0.000000001
 43
0.0000000001
 44
0.00000001
 40
0.0
 40
0.0
 40
0.0
 40
0.0
 40
0.2514279585802805
 40
0.5018336348719667
 40
0.7715939153859299
 40
0.99385217006729
 40
1.113210497587379
 40
1.24521602832447
 40
1.24521602832447
 40
1.24521602832447
 40
1.24521602832447
 10
-9.980683522727809
 20
130.0540346918267
 30
0.0
 10
-10.01754892740766
 20
129.9787385023267
 30
0.0
 10
-10.09112985859642
 20
129.828452277144
 30
0.0
 10
-10.22212755331621
 20
129.6068313209625
 30
0.0
 10
-10.36088223221924
 20
129.4017040892487
 30
0.0
 10
-10.48620199975593
 20
129.2408388849728
 30
0.0
 10
-10.58871438417658
 20
129.1207190770915
 30
0.0
 10
-10.6460405523735
 20
129.0595959622695
 30
0.0
 10
-10.67614580567358
 20
129.0274967256921
 30
0.0
 11
-9.980683522727809
 21
130.0540346918267
 31
0.0
 11
-10.09419610996085
 21
129.8296891752357
 31
0.0
 11
-10.22090515974806
 21
129.6137081122302
 31
0.0
 11
-10.37243495608862
 21
129.3905280725285
 31
0.0
 11
-10.50895207817942
 21
129.2151376294193
 31
0.0
 11
-10.58663538840922
 21
129.1245191225141
 31
0.0
 11
-10.67614580567358
 21
129.0274967256921
 31
0.0
  0
SPLINE
  5
21C
330
1F
100
AcDbEntity
  8
0
  6
Continuous
 62
     7
100
AcDbSpline
210
0.0
220
0.0
230
1.0
 70
     8
 71
     3
 72
    11
 73
     7
 74
     5
 42
0.000000001
 43
0.0000000001
 44
0.00000001
 40
0.0
 40
0.0
 40
0.0
 40
0.0
 40
0.7498180734257021
 40
1.499636131060525
 40
2.247021596144071
 40
2.994407061151118
 40
2.994407061151118
 40
2.994407061151118
 40
2.994407061151118
 10
-10.63700073911492
 20
129.807901733876
 30
0.0
 10
-10.85504247795379
 20
129.9300798117209
 30
0.0
 10
-11.29112595053504
 20
130.1744359657383
 30
0.0
 10
-11.94454377552406
 20
130.5405738218977
 30
0.0
 10
-12.59725421477431
 20
130.9063153010667
 30
0.0
 10
-13.03192292048909
 20
131.1498787036939
 30
0.0
 10
-13.24925727338878
 20
131.2716604049059
 30
0.0
 11
-10.63700073911492
 21
129.807901733876
 31
0.0
 11
-11.29112595521083
 21
130.1744359681616
 31
0.0
 11
-11.94525115588515
 21
130.5409701976655
 31
0.0
 11
-12.5972542146771
 21
130.9063153012923
 31
0.0
 11
-13.24925727338878
 21
131.2716604049059
 31
0.0
  0
SPLINE
  5
21D
330
1F
100
AcDbEntity
  8
0
  6
Continuous
 62
     7
100
AcDbSpline
210
0.0
220
0.0
230
1.0
 70
     8
 71
     3
 72
    21
 73
    17
 74
    15
 42
0.000000001
 43
0.0000000001
 44
0.00000001
 40
0.0
 40
0.0
 40
0.0
 40
0.0
 40
0.5542122008487762
 40
1.150504296080568
 40
1.815938279739554
 40
2.558626397846458
 40
3.371257795963134
 40
4.235900605415373
 40
5.128100523854362
 40
6.020300442293312
 40
6.884943251745467
 40
7.697574649862153
 40
8.440262767969102
 40
9.105696751628047
 40
9.701988846859829
 40
10.25620104770862
 40
10.25620104770862
 40
10.25620104770862
 40
10.25620104770862
 10
-20.50432302337778
 20
139.6766328505099
 30
0.0
 10
-20.67955140794443
 20
139.7410905417714
 30
0.0
 10
-21.04331281708514
 20
139.8749000140699
 30
0.0
 10
-21.66293439865302
 20
139.8186844434616
 30
0.0
 10
-22.2951189436924
 20
139.5916144759665
 30
0.0
 10
-22.92377971254651
 20
139.1897682944498
 30
0.0
 10
-23.51857070930186
 20
138.6400901701661
 30
0.0
 10
-24.05325574681132
 20
137.9669850406035
 30
0.0
 10
-24.50214811566339
 20
137.203409441653
 30
0.0
 10
-24.84367317351251
 20
136.3861501872011
 30
0.0
 10
-25.06134625465691
 20
135.554539079456
 30
0.0
 10
-25.14421415603063
 20
134.7488994074815
 30
0.0
 10
-25.08849463993161
 20
134.0048630834882
 30
0.0
 10
-24.89083988690405
 20
133.3628734669596
 30
0.0
 10
-24.56403939444984
 20
132.8334468593404
 30
0.0
 10
-24.23873497112668
 20
132.6227234154069
 30
0.0
 10
-24.08203178737745
 20
132.5212153225105
 30
0.0
 11
-20.50432302337778
 21
139.6766328505099
 31
0.0
 11
-21.03669241052932
 21
139.8306912978282
 31
0.0
 11
-21.63206694298243
 21
139.7976241237943
 31
0.0
 11
-22.26059245083335
 21
139.5790879231538
 31
0.0
 11
-22.89075189765219
 21
139.1860424931155
 31
0.0
 11
-23.49094634101312
 21
138.6381954192238
 31
0.0
 11
-24.03107989535677
 21
137.9630192009859
 31
0.0
 11
-24.4840674038183
 21
137.1943690857305
 31
0.0
 11
-24.82719499094567
 21
136.370789009808
 31
0.0
 11
-25.04325583292978
 21
135.5335764353904
 31
0.0
 11
-25.1214168260266
 21
134.7247126363667
 31
0.0
 11
-25.057757501966
 21
133.9847578208885
 31
0.0
 11
-24.85547115776777
 21
133.3508156942236
 31
0.0
 11
-24.52470017752305
 21
132.8546757638407
 31
0.0
 11
-24.08203178737745
 21
132.5212153225105
 31
0.0
  0
SPLINE
  5
21E
330
1F
100
AcDbEntity
  8
0
  6
Continuous
 62
     7
100
AcDbSpline
210
0.0
220
0.0
230
1.0
 70
     8
 71
     3
 72
    23
 73
    19
 74
    17
 42
0.000000001
 43
0.0000000001
 44
0.00000001
 40
0.0
 40
0.0
 40
0.0
 40
0.0
 40
0.6050163893918923
 40
1.24601074281592
 40
1.948653779392897
 40
2.724497740250983
 40
3.572482446548773
 40
4.482045351102238
 40
5.436056957900639
 40
6.413281130559053
 40
7.390505303217436
 40
8.344516910015825
 40
9.254079814569312
 40
10.10206452086709
 40
10.87790848172517
 40
11.58055151830211
 40
12.22154587172613
 40
12.82656226111802
 40
12.82656226111802
 40
12.82656226111802
 40
12.82656226111802
 10
-18.5718707513807
 20
128.6481008157622
 30
0.0
 10
-18.74417832200073
 20
128.7560834445291
 30
0.0
 10
-19.09903991241718
 20
128.9784700196886
 30
0.0
 10
-19.48412770863507
 20
129.5194322820846
 30
0.0
 10
-19.74866713943447
 20
130.1786166551562
 30
0.0
 10
-19.87870486955768
 20
130.9487682563008
 30
0.0
 10
-19.87515273522084
 20
131.7964261840528
 30
0.0
 10
-19.73833446427322
 20
132.6928645539946
 30
0.0
 10
-19.47392347679752
 20
133.6046967815807
 30
0.0
 10
-19.09178801406183
 20
134.4982293908523
 30
0.0
 10
-18.60624320428592
 20
135.3400573266039
 30
0.0
 10
-18.03542401470246
 20
136.0986854531361
 30
0.0
 10
-17.40036428131764
 20
136.7460030918593
 30
0.0
 10
-16.72436921971811
 20
137.2574395559799
 30
0.0
 10
-16.03022530072854
 20
137.615500332568
 30
0.0
 10
-15.34415414379156
 20
137.7993794117716
 30
0.0
 10
-14.6803316561441
 20
137.8158865322348
 30
0.0
 10
-14.28950544176661
 20
137.6654292049973
 30
0.0
 10
-14.09973479638112
 20
137.5923727257614
 30
0.0
 11
-18.5718707513807
 21
128.6481008157622
 31
0.0
 11
-19.06318205342826
 21
129.0011702748041
 31
0.0
 11
-19.44968195304618
 21
129.5125327660546
 31
0.0
 11
-19.71651693238153
 21
130.1625376346378
 31
0.0
 11
-19.8534332770688
 21
130.9262049471454
 31
0.0
 11
-19.85516872695323
 21
131.7741878763368
 31
0.0
 11
-19.72165724438099
 21
132.6738985844337
 31
0.0
 11
-19.45802895830149
 21
133.5907618602485
 31
0.0
 11
-19.07441556140675
 21
134.4895431645248
 31
0.0
 11
-18.58555855612256
 21
135.3357026646064
 31
0.0
 11
-18.01024490711843
 21
136.0967232589588
 31
0.0
 11
-17.37058323018427
 21
136.7433588698748
 31
0.0
 11
-16.69115561690043
 21
137.2507602674821
 31
0.0
 11
-15.998071960082
 21
137.5994275792368
 31
0.0
 11
-15.31796707761426
 21
137.7759625169184
 31
0.0
 11
-14.67697714484316
 21
137.7735800919744
 31
0.0
 11
-14.09973479638112
 21
137.5923727257614
 31
0.0
  0
ARC
  5
21F
102
{ACAD_REACTORS
330
274
102
}
330
1F
100
AcDbEntity
  8
1
  6
Continuous
 62
     7
100
AcDbCircle
 10
-9.16184965562866
 20
6.41666666666663
 30
0.0
 40
0.0833333333333545
100
AcDbArc
 50
209.9999999999622
 51
330.0000000000177
  0
ARC
  5
220
102
{ACAD_REACTORS
330
275
102
}
330
1F
100
AcDbEntity
  8
1
  6
Continuous
 62
     7
100
AcDbCircle
 10
-10.32851632229534
 20
5.13501057401635
 30
0.0
 40
0.3333333333333215
100
AcDbArc
 50
180.0000000000104
 51
240.0183606311564
  0
ARC
  5
221
330
1F
100
AcDbEntity
  8
1
  6
Continuous
 62
     7
100
AcDbCircle
 10
-13.32842375540861
 20
6.25
 30
0.0
 40
0.0833333333333053
100
AcDbArc
 50
119.9816393688866
 51
240.0183606311338
  0
ARC
  5
222
330
1F
100
AcDbEntity
  8
1
  6
Continuous
 62
     7
100
AcDbCircle
 10
-4.99527555584871
 20
6.25
 30
0.0
 40
0.0833333333333293
100
AcDbArc
 50
299.9816393688334
 51
60.01836063114615
  0
ARC
  5
223
102
{ACAD_REACTORS
330
277
102
}
330
1F
100
AcDbEntity
  8
1
  6
Continuous
 62
     7
100
AcDbCircle
 10
-7.82851632229534
 20
7.46125008008369
 30
0.0
 40
0.1666666666666874
100
AcDbArc
 50
60.01836063114941
 51
180.0
  0
ARC
  5
224
102
{ACAD_REACTORS
330
277
102
}
330
1F
100
AcDbEntity
  8
1
  6
Continuous
 62
     7
100
AcDbCircle
 10
-7.82851632229534
 20
5.03874991991631
 30
0.0
 40
0.1666666666666252
100
AcDbArc
 50
180.0
 51
299.9816393688506
  0
MTEXT
  5
226
330
1F
100
AcDbEntity
  8
1
 62
     4
100
AcDbMText
 10
-33.09999999999958
 20
39.2387606770449
 30
0.0
 40
1.0
 41
0.0
 71
     5
 72
     1
  1
without groove
  7
CONVERTER_11
 73
     1
 44
1.32052821128451
  0
MTEXT
  5
227
330
1F
100
AcDbEntity
  8
1
 62
     4
100
AcDbMText
 10
-33.09999999999958
 20
42.43876067704497
 30
0.0
 40
1.0
 41
0.0
 71
     5
 72
     1
  1
2
  7
CONVERTER_11
 73
     1
 44
1.32052821128451
  0
MTEXT
  5
228
330
1F
100
AcDbEntity
  8
1
 62
     4
100
AcDbMText
 10
-33.09999999999958
 20
45.63876067704499
 30
0.0
 40
1.0
 41
0.0
 71
     5
 72
     1
  1
1
  7
CONVERTER_11
 73
     1
 44
1.32052821128451
  0
MTEXT
  5
229
330
1F
100
AcDbEntity
  8
1
 62
     4
100
AcDbMText
 10
-33.09999999999958
 20
48.83876067704493
 30
0.0
 40
1.0
 41
0.0
 71
     5
 72
     1
  1
without groove
  7
CONVERTER_11
 73
     1
 44
1.32052821128451
  0
MTEXT
  5
22B
330
1F
100
AcDbEntity
  8
1
 62
     4
100
AcDbMText
 10
-33.09999999999958
 20
53.43876067704495
 30
0.0
 40
1.0
 41
0.0
 71
     5
 72
     1
  1
IDENTIFICATION
  7
CONVERTER_12
 73
     1
 44
1.32052821128451
  0
MTEXT
  5
22C
330
1F
100
AcDbEntity
  8
1
 62
     4
100
AcDbMText
 10
-70.10000000000046
 20
54.93876067704495
 30
0.0
 40
1.0
 41
0.0
 71
     5
 72
     1
  1
PART NUMBERS
  7
CONVERTER_11
 73
     1
 44
1.32052821128451
  0
MTEXT
  5
22D
330
1F
100
AcDbEntity
  8
1
 62
     4
100
AcDbMText
 10
-70.10000000000046
 20
48.83876067704486
 30
0.0
 40
1.0
 41
0.0
 71
     5
 72
     1
  1
CYFA 25
  7
CONVERTER_11
 73
     1
 44
1.32052821128451
  0
MTEXT
  5
22E
330
1F
100
AcDbEntity
  8
1
 62
     4
100
AcDbMText
 10
-70.10000000000046
 20
45.63876067704484
 30
0.0
 40
1.0
 41
0.0
 71
     5
 72
     1
  1
CYFA 35
  7
CONVERTER_11
 73
     1
 44
1.32052821128451
  0
MTEXT
  5
22F
330
1F
100
AcDbEntity
  8
1
 62
     4
100
AcDbMText
 10
-60.10000000000027
 20
45.63876067704484
 30
0.0
 40
1.0
 41
0.0
 71
     5
 72
     1
  1
8,2
  7
CONVERTER_11
 73
     1
 44
1.32052821128451
  0
MTEXT
  5
230
330
1F
100
AcDbEntity
  8
1
 62
     4
100
AcDbMText
 10
-60.10000000000027
 20
48.83876067704486
 30
0.0
 40
1.0
 41
0.0
 71
     5
 72
     1
  1
7,0
  7
CONVERTER_11
 73
     1
 44
1.32052821128451
  0
MTEXT
  5
231
330
1F
100
AcDbEntity
  8
1
 62
     4
100
AcDbMText
 10
-60.10000000000027
 20
54.93876067704495
 30
0.0
 40
1.0
 41
0.0
 71
     5
 72
     1
  1
\U+00f8A
  7
CONVERTER_11
 73
     1
 44
1.32052821128451
  0
MTEXT
  5
232
330
1F
100
AcDbEntity
  8
1
 62
     4
100
AcDbMText
 10
-52.10000000000004
 20
45.63876067704484
 30
0.0
 40
1.0
 41
0.0
 71
     5
 72
     1
  1
35
  7
CONVERTER_11
 73
     1
 44
1.32052821128451
  0
MTEXT
  5
233
330
1F
100
AcDbEntity
  8
1
 62
     4
100
AcDbMText
 10
-52.10000000000004
 20
48.83876067704486
 30
0.0
 40
1.0
 41
0.0
 71
     5
 72
     1
  1
25
  7
CONVERTER_11
 73
     1
 44
1.32052821128451
  0
MTEXT
  5
234
330
1F
100
AcDbEntity
  8
1
 62
     4
100
AcDbMText
 10
-52.10000000000004
 20
51.93876067704496
 30
0.0
 40
1.0
 41
0.0
 71
     5
 72
     1
  1
mm
  7
CONVERTER_11
 73
     1
 44
1.32052821128451
  0
MTEXT
  5
235
330
1F
100
AcDbEntity
  8
1
 62
     4
100
AcDbMText
 10
-43.09999999999982
 20
48.83876067704486
 30
0.0
 40
1.0
 41
0.0
 71
     5
 72
     1
  1
4
  7
CONVERTER_11
 73
     1
 44
1.32052821128451
  0
MTEXT
  5
236
330
1F
100
AcDbEntity
  8
1
 62
     4
100
AcDbMText
 10
-43.09999999999982
 20
45.63876067704484
 30
0.0
 40
1.0
 41
0.0
 71
     5
 72
     1
  1
2
  7
CONVERTER_11
 73
     1
 44
1.32052821128451
  0
MTEXT
  5
237
330
1F
100
AcDbEntity
  8
1
 62
     4
100
AcDbMText
 10
-47.6
 20
54.93876067704495
 30
0.0
 40
1.0
 41
0.0
 71
     5
 72
     1
  1
WIRE GAUGE
  7
CONVERTER_11
 73
     1
 44
1.32052821128451
  0
MTEXT
  5
238
330
1F
100
AcDbEntity
  8
1
 62
     4
100
AcDbMText
 10
-70.10000000000046
 20
51.93876067704496
 30
0.0
 40
1.0
 41
0.0
 71
     5
 72
     1
  1
SILVER PLATED
  7
CONVERTER_11
 73
     1
 44
1.32052821128451
  0
MTEXT
  5
239
330
1F
100
AcDbEntity
  8
1
 62
     4
100
AcDbMText
 10
-43.09999999999982
 20
51.93876067704496
 30
0.0
 40
1.0
 41
0.0
 71
     5
 72
     1
  1
AWG
  7
CONVERTER_11
 73
     1
 44
1.32052821128451
  0
MTEXT
  5
23A
330
1F
100
AcDbEntity
  8
1
 62
     4
100
AcDbMText
 10
-22.59999999999935
 20
53.43876067704495
 30
0.0
 40
1.0
 41
0.0
 71
     5
 72
     1
  1
STRIPPING\P LENGTH\P   mm
  7
CONVERTER_11
 73
     1
 44
1.02040816326531
  0
TEXT
  5
23B
330
1F
100
AcDbEntity
  8
1
 62
     4
100
AcDbText
 10
-50.5417214336504
 20
52.09885249203532
 30
0.0
 40
0.75
  1
2
 41
0.95
  7
CONVERTER_11
100
AcDbText
  0
MTEXT
  5
23C
330
1F
100
AcDbEntity
  8
1
 62
     4
100
AcDbMText
 10
-60.10000000000027
 20
51.93876067704496
 30
0.0
 40
1.0
 41
0.0
 71
     5
 72
     1
  1
mm
  7
CONVERTER_11
 73
     1
 44
1.32052821128451
  0
MTEXT
  5
23E
330
1F
100
AcDbEntity
  8
1
 62
     7
100
AcDbMText
 10
-97.00000000000004
 20
75.7499999999999
 30
0.0
 40
2.0
 41
0.0
 71
     5
 72
     1
  1
Diritti riservati      All rights reserved
  7
CONVERTER_13
 11
0.0
 21
1.0
 31
0.0
 73
     1
 44
1.32052821128451
  0
MTEXT
  5
23F
330
1F
100
AcDbEntity
  8
1
 62
     7
100
AcDbMText
 10
-93.49999999999999
 20
8.13031971037799
 30
0.0
 40
1.5
 41
0.0
 71
     4
 72
     1
  1
Date
  7
CONVERTER_13
 73
     1
 44
1.32052821128451
  0
MTEXT
  5
240
330
1F
100
AcDbEntity
  8
1
 62
     7
100
AcDbMText
 10
-88.2
 20
8.13031971037799
 30
0.0
 40
1.5
 41
0.0
 71
     4
 72
     1
  1
12/02/09
  7
CONVERTER_13
 73
     1
 44
1.32052821128451
  0
MTEXT
  5
241
330
1F
100
AcDbEntity
  8
1
 62
     7
100
AcDbMText
 10
-93.49999999999999
 20
4.375
 30
0.0
 40
1.5
 41
0.0
 71
     4
 72
     1
  1
Sign.
  7
CONVERTER_13
 73
     1
 44
1.32052821128451
  0
MTEXT
  5
242
330
1F
100
AcDbEntity
  8
1
 62
     7
100
AcDbMText
 10
-88.2
 20
4.375
 30
0.0
 40
1.5
 41
0.0
 71
     4
 72
     1
  1
T.Tedeschi
  7
CONVERTER_13
 73
     1
 44
1.32052821128451
  0
MTEXT
  5
244
330
1F
100
AcDbEntity
  8
1
 62
     7
100
AcDbMText
 10
-76.36184965562863
 20
6.25
 30
0.0
 40
2.25
 41
0.0
 71
     4
 72
     1
  1
CYFA\Pfemale crimp contact 200A
  7
CONVERTER_14
 73
     1
 44
0.90036014405762
  0
MTEXT
  5
245
330
1F
100
AcDbEntity
  8
1
 62
     7
100
AcDbMText
 10
-20.16184965562864
 20
8.13031971037799
 30
0.0
 40
1.5
 41
0.0
 71
     5
 72
     1
  1
Scale
  7
CONVERTER_13
 73
     1
 44
1.32052821128451
  0
MTEXT
  5
246
330
1F
100
AcDbEntity
  8
1
 62
     7
100
AcDbMText
 10
-20.16184965562864
 20
5.03031971037803
 30
0.0
 40
2.25
 41
0.0
 71
     5
 72
     1
  1
2:1
  7
CONVERTER_13
 73
     1
 44
1.32052821128451
  0
MTEXT
  5
247
330
1F
100
AcDbEntity
  8
1
 62
     4
100
AcDbMText
 10
-43.09999999999982
 20
42.43876067704478
 30
0.0
 40
1.0
 41
0.0
 71
     5
 72
     1
  1
1
  7
CONVERTER_11
 73
     1
 44
1.32052821128451
  0
MTEXT
  5
248
330
1F
100
AcDbEntity
  8
1
 62
     4
100
AcDbMText
 10
-52.10000000000004
 20
42.43876067704478
 30
0.0
 40
1.0
 41
0.0
 71
     5
 72
     1
  1
50
  7
CONVERTER_11
 73
     1
 44
1.32052821128451
  0
MTEXT
  5
249
330
1F
100
AcDbEntity
  8
1
 62
     4
100
AcDbMText
 10
-60.10000000000027
 20
42.43876067704478
 30
0.0
 40
1.0
 41
0.0
 71
     5
 72
     1
  1
9,8
  7
CONVERTER_11
 73
     1
 44
1.32052821128451
  0
MTEXT
  5
24A
330
1F
100
AcDbEntity
  8
1
 62
     4
100
AcDbMText
 10
-70.10000000000046
 20
42.43876067704478
 30
0.0
 40
1.0
 41
0.0
 71
     5
 72
     1
  1
CYFA 50
  7
CONVERTER_11
 73
     1
 44
1.32052821128451
  0
MTEXT
  5
24B
330
1F
100
AcDbEntity
  8
1
 62
     4
100
AcDbMText
 10
-70.10000000000046
 20
39.23876067704473
 30
0.0
 40
1.0
 41
0.0
 71
     5
 72
     1
  1
CYFA 70
  7
CONVERTER_11
 73
     1
 44
1.32052821128451
  0
MTEXT
  5
24C
330
1F
100
AcDbEntity
  8
1
 62
     4
100
AcDbMText
 10
-60.10000000000027
 20
39.23876067704473
 30
0.0
 40
1.0
 41
0.0
 71
     5
 72
     1
  1
3,5
  7
CONVERTER_11
 73
     1
 44
1.32052821128451
  0
MTEXT
  5
24D
330
1F
100
AcDbEntity
  8
1
 62
     4
100
AcDbMText
 10
-52.10000000000004
 20
39.23876067704473
 30
0.0
 40
1.0
 41
0.0
 71
     5
 72
     1
  1
70
  7
CONVERTER_11
 73
     1
 44
1.32052821128451
  0
MTEXT
  5
24E
330
1F
100
AcDbEntity
  8
1
 62
     4
100
AcDbMText
 10
-43.09999999999982
 20
39.23876067704473
 30
0.0
 40
1.0
 41
0.0
 71
     5
 72
     1
  1
2/0
  7
CONVERTER_11
 73
     1
 44
1.32052821128451
  0
MTEXT
  5
24F
330
1F
100
AcDbEntity
  8
1
 62
     4
100
AcDbMText
 10
-22.59999999999936
 20
44.03876067704486
 30
0.0
 40
1.0
 41
0.0
 71
     5
 72
     1
  1
15
  7
CONVERTER_11
 73
     1
 44
1.32052821128451
  0
DIMENSION
  5
25B
330
1F
100
AcDbEntity
  8
1
100
AcDbDimension
  2
*D1
 10
-79.1849474912486
 20
110.043245967742
 30
0.0
 11
-79.1849474912486
 21
91.04324596774195
 31
0.0
 70
    32
  1
<>
 71
     5
 42
-1.0
 53
0.00013888888889
  3
ME10_DIM_10
100
AcDbAlignedDimension
 13
-69.48718844075364
 23
72.04324596774195
 33
0.0
 14
-71.7939516129033
 24
110.043245967742
 34
0.0
 50
90.0
100
AcDbRotatedDimension
  0
DIMENSION
  5
267
330
1F
100
AcDbEntity
  8
1
100
AcDbDimension
  2
*D2
 10
-73.7939516129033
 20
114.836629505685
 30
0.0
 11
-63.7939516129033
 21
116.586629505685
 31
0.0
 70
    32
  1
<>
 71
     5
 42
-1.0
 53
0.00013888888889
  3
ME10_DIM_11
100
AcDbAlignedDimension
 13
-53.79395161290331
 23
94.0432454909048
 33
0.0
 14
-73.7939516129033
 24
94.0432454909048
 34
0.0
100
AcDbRotatedDimension
  0
DIMENSION
  5
272
330
1F
100
AcDbEntity
  8
1
100
AcDbDimension
  2
*D3
 10
-34.49177945564617
 20
114.823101043151
 30
0.0
 11
-30.39177945564617
 21
116.698101043151
 31
0.0
 70
    32
  1
 {\Fgdt;n}A
 71
     5
 42
-1.0
 53
0.00013888888889
  3
ME10_DIM_12
100
AcDbAlignedDimension
 13
-26.29177945564618
 23
107.098759594875
 33
0.0
 14
-34.49177945564617
 24
107.098759594875
 34
0.0
100
AcDbRotatedDimension
  0
HATCH
  5
273
330
1F
100
AcDbEntity
  8
1
  6
Continuous
 62
     3
100
AcDbHatch
 10
0.0
 20
0.0
 30
0.0
210
0.0
220
0.0
230
1.0
  2
_USER
 70
     0
 71
     1
 91
        1
 92
        1
 93
       16
 72
     1
 10
-24.59177945564602
 20
110.043245967742
 11
-26.29177945564618
 21
107.098759594875
 72
     1
 10
-26.29177945564618
 20
107.098759594875
 11
-26.29177945564618
 21
94.54324596774195
 72
     1
 10
-26.29177945564618
 20
94.54324596774195
 11
-30.3917794556462
 21
93.05096800725057
 72
     1
 10
-30.3917794556462
 20
93.05096800725057
 11
-34.49177945564617
 21
94.54324596774195
 72
     1
 10
-34.49177945564617
 20
94.54324596774195
 11
-34.49177945564617
 21
107.098759594875
 72
     1
 10
-34.49177945564617
 20
107.098759594875
 11
-36.19177945564616
 21
110.043245967742
 72
     1
 10
-36.19177945564616
 20
110.043245967742
 11
-38.3917794556462
 21
110.043245967742
 72
     1
 10
-38.3917794556462
 20
110.043245967742
 11
-38.3917794556462
 21
107.543245967742
 72
     1
 10
-38.3917794556462
 20
107.543245967742
 11
-36.49177936027878
 21
106.446280177947
 72
     1
 10
-36.49177936027878
 20
106.446280177947
 11
-36.49177936027878
 21
95.0432454909048
 72
     1
 10
-36.49177936027878
 20
95.0432454909048
 11
-36.48661235283248
 21
94.7560321654043
 72
     4
 94
        3
 73
     0
 74
     0
 95
       20
 96
       16
 40
0.0
 40
0.0
 40
0.0
 40
0.0
 40
1.452645157541695
 40
2.929101717814708
 40
4.3544748132854
 40
5.446957588191532
 40
6.559605255264793
 40
7.592446829303443
 40
8.646584082336766
 40
9.854143116874146
 40
10.9847985198537
 40
11.42100350637233
 40
11.87125483738951
 40
13.24237398830082
 40
14.53823660375232
 40
14.53823660375232
 40
14.53823660375232
 40
14.53823660375232
 10
-36.48661235283248
 20
94.7560321654043
 10
-36.10197118504573
 20
94.4607024817128
 10
-35.32638389686232
 20
93.86520215393696
 10
-34.29708573614705
 20
92.84358059564426
 10
-33.16246661704632
 20
92.09516300157219
 10
-31.96206084191147
 20
91.84395281720886
 10
-30.88343281453324
 20
91.801759869325
 10
-29.81689218494929
 20
91.80794184783278
 10
-28.71804046623383
 20
91.8411169165981
 10
-27.59253003044248
 20
91.8667354643395
 10
-26.66371688706003
 20
92.1129580165912
 10
-26.14184564843735
 20
92.54715388972373
 10
-25.65312971271541
 20
93.12258995252304
 10
-25.19116444526398
 20
94.06773589607911
 10
-24.58588124533344
 20
94.72425077266814
 10
-24.29177955101363
 20
95.0432454909048
 72
     1
 10
-24.29177955101363
 20
95.0432454909048
 11
-24.29177955101363
 21
106.446280177947
 72
     1
 10
-24.29177955101363
 20
106.446280177947
 11
-22.39177993248336
 21
107.543245967742
 72
     1
 10
-22.39177993248336
 20
107.543245967742
 11
-22.39177993248336
 21
110.043245967742
 72
     1
 10
-22.39177993248336
 20
110.043245967742
 11
-24.59177945564602
 21
110.043245967742
 97
       16
330
BA
330
B8
330
A8
330
1A2
330
AA
330
A9
330
B7
330
B9
330
49
330
5D
330
5A
330
59
330
60
330
5F
330
5E
330
66
 75
     1
 76
     0
 52
45.00000000000005
 41
1.0
 77
     0
 78
     1
 53
45.00000000000005
 43
0.0
 44
0.0
 45
-0.7071067811865481
 46
0.7071067811865469
 79
     0
 98
        1
 10
0.0
 20
0.0
  0
HATCH
  5
274
330
1F
100
AcDbEntity
  8
1
  6
Continuous
 62
     7
100
AcDbHatch
 10
0.0
 20
0.0
 30
0.0
210
0.0
220
0.0
230
1.0
  2
SOLID
 70
     1
 71
     1
 91
        1
 92
        1
 93
       16
 72
     2
 10
-8.460999428533
 20
7.865608656017285
 40
0.1324831062376557
 50
210.0000000000258
 51
360.0
 73
     0
 72
     1
 10
-8.328516322295345
 20
7.865608656017285
 11
-8.328516322295345
 21
4.654134535300898
 72
     2
 10
-8.49518298896197
 20
4.654134535300898
 40
0.1666666666666856
 50
0.0
 51
180.0
 73
     0
 72
     1
 10
-8.661849655628655
 20
4.654134535300898
 11
-8.661849655628655
 21
6.25
 72
     1
 10
-8.661849655628655
 20
6.25
 11
-8.661849655628655
 21
7.11602540378442
 72
     1
 10
-8.661849655628655
 20
7.11602540378442
 11
-9.089680871979965
 21
6.375
 72
     2
 10
-9.161849655628655
 20
6.41666666666663
 40
0.0833333333333545
 50
29.99999999998236
 51
150.0000000000378
 73
     0
 72
     1
 10
-9.234018439277405
 20
6.375
 11
-9.661849655628655
 21
7.11602540378442
 72
     1
 10
-9.661849655628655
 20
7.11602540378442
 11
-9.661849655628655
 21
6.25
 72
     1
 10
-9.661849655628655
 20
6.25
 11
-9.661849655628655
 21
5.423792536316455
 72
     2
 10
-9.828516322295345
 20
5.423792536316455
 40
0.1666666666666856
 50
0.0
 51
180.0
 73
     0
 72
     1
 10
-9.99518298896203
 20
5.423792536316455
 11
-9.99518298896203
 21
6.25
 72
     1
 10
-9.99518298896203
 20
6.25
 11
-9.99518298896203
 21
7.865608656017285
 72
     2
 10
-9.86269988272437
 20
7.865608656017285
 40
0.1324831062376642
 50
180.0
 51
329.9999999999862
 73
     0
 72
     1
 10
-9.747966147150295
 20
7.931850209136145
 11
-9.161849655628655
 21
6.91666666666663
 72
     1
 10
-9.161849655628655
 20
6.91666666666663
 11
-8.57573316410702
 21
7.931850209136145
 97
       16
330
171
330
196
330
170
330
172
330
197
330
173
330
16B
330
16A
330
21F
330
169
330
168
330
174
330
198
330
175
330
199
330
176
 75
     0
 76
     1
 98
        1
 10
0.0
 20
0.0
  0
HATCH
  5
275
330
1F
100
AcDbEntity
  8
1
  6
Continuous
 62
     7
100
AcDbHatch
 10
0.0
 20
0.0
 30
0.0
210
0.0
220
0.0
230
1.0
  2
SOLID
 70
     1
 71
     1
 91
        1
 92
        1
 93
        7
 72
     2
 10
-10.49518298896203
 20
7.461250080083685
 40
0.1666666666666909
 50
0.0
 51
180.0
 73
     1
 72
     1
 10
-10.66184965562866
 20
7.461250080083685
 11
-10.66184965562866
 21
5.13501057401629
 72
     2
 10
-10.32851632229534
 20
5.13501057401635
 40
0.3333333333333215
 50
180.0000000000104
 51
240.0183606311564
 73
     1
 72
     1
 10
-10.49509047345851
 20
4.846282045333453
 11
-9.41180339787695
 21
4.221308732497903
 72
     2
 10
-9.328516322295345
 20
4.365672996839351
 40
0.1666666666666837
 50
240.0183606311504
 51
420.0183606311494
 73
     1
 72
     1
 10
-9.245229246713736
 20
4.510037261180798
 11
-10.32851632229534
 21
5.13501057401635
 72
     1
 10
-10.32851632229534
 20
5.13501057401635
 11
-10.32851632229534
 21
7.461250080083685
 97
        7
330
19A
330
177
330
220
330
17A
330
19B
330
179
330
178
 75
     0
 76
     1
 98
        1
 10
0.0
 20
0.0
  0
HATCH
  5
276
330
1F
100
AcDbEntity
  8
1
  6
Continuous
 62
     7
100
AcDbHatch
 10
0.0
 20
0.0
 30
0.0
210
0.0
220
0.0
230
1.0
  2
SOLID
 70
     1
 71
     1
 91
        1
 92
        1
 93
        5
 72
     2
 10
-11.16184965562866
 20
7.07663469546833
 40
0.1666666666666305
 50
0.0
 51
180.0
 73
     1
 72
     1
 10
-11.32851632229534
 20
7.07663469546833
 11
-11.32851632229534
 21
5.423365304531615
 72
     2
 10
-11.16184965562866
 20
5.423365304531615
 40
0.1666666666666785
 50
180.0
 51
360.0
 73
     1
 72
     1
 10
-10.99518298896203
 20
5.423365304531615
 11
-10.99518298896203
 21
5.51962595863165
 72
     1
 10
-10.99518298896203
 20
5.51962595863165
 11
-10.99518298896203
 21
7.07663469546833
 97
        5
330
19C
330
17D
330
19D
330
17C
330
17B
 75
     0
 76
     1
 98
        1
 10
0.0
 20
0.0
  0
HATCH
  5
277
330
1F
100
AcDbEntity
  8
1
  6
Continuous
 62
     7
100
AcDbHatch
 10
0.0
 20
0.0
 30
0.0
210
0.0
220
0.0
230
1.0
  2
SOLID
 70
     1
 71
     1
 91
        1
 92
        1
 93
       14
 72
     2
 10
-7.828516322295345
 20
7.461250080083685
 40
0.1666666666666874
 50
60.01836063114941
 51
180.0
 73
     1
 72
     1
 10
-7.99518298896197
 20
7.461250080083685
 11
-7.99518298896197
 21
5.038749919916315
 72
     2
 10
-7.828516322295345
 20
5.038749919916315
 40
0.1666666666666252
 50
180.0
 51
299.9816393688506
 73
     1
 72
     1
 10
-7.745229246713735
 20
4.894385655574865
 11
-7.078562580047105
 21
5.279001040190165
 72
     2
 10
-7.161849655628655
 20
5.423365304531615
 40
0.1666666666666572
 50
299.9816393688326
 51
479.9816393688413
 73
     1
 72
     1
 10
-7.245136731210265
 20
5.56772956887312
 11
-7.661849655628655
 21
5.32731826632397
 72
     1
 10
-7.661849655628655
 20
5.32731826632397
 11
-7.661849655628655
 21
6.083333333333315
 72
     1
 10
-7.661849655628655
 20
6.083333333333315
 11
-7.161849655628655
 21
6.083333333333315
 72
     2
 10
-7.161849655628655
 20
6.25
 40
0.1666666666666847
 50
270.0
 51
450.0
 73
     1
 72
     1
 10
-7.161849655628655
 20
6.41666666666663
 11
-7.661849655628655
 21
6.41666666666663
 72
     1
 10
-7.661849655628655
 20
6.41666666666663
 11
-7.661849655628655
 21
7.17268173367597
 72
     1
 10
-7.661849655628655
 20
7.17268173367597
 11
-7.245136731210265
 21
6.93227043112688
 72
     2
 10
-7.161849655628655
 20
7.07663469546833
 40
0.1666666666666886
 50
240.0183606311493
 51
420.0183606311572
 73
     1
 72
     1
 10
-7.078562580047105
 20
7.22099895980972
 11
-7.745229246713735
 21
7.605614344425135
 97
       14
330
19E
330
17F
330
180
330
181
330
19F
330
182
330
183
330
184
330
1A0
330
185
330
224
330
167
330
223
330
17E
 75
     0
 76
     1
 98
        1
 10
0.0
 20
0.0
  0
ENDSEC
  0
SECTION
  2
OBJECTS
  0
DICTIONARY
  5
C
330
0
100
AcDbDictionary
281
     1
  3
ACAD_GROUP
350
D
  3
ACAD_LAYOUT
350
1A
  3
ACAD_MATERIAL
350
3B
  3
ACAD_MLEADERSTYLE
350
27A
  3
ACAD_MLINESTYLE
350
17
  3
ACAD_PLOTSETTINGS
350
19
  3
ACAD_PLOTSTYLENAME
350
E
  3
ACAD_VISUALSTYLE
350
2A
  3
AcDbVariableDictionary
350
278
  0
DICTIONARY
  5
D
102
{ACAD_REACTORS
330
C
102
}
330
C
100
AcDbDictionary
281
     1
  0
DICTIONARY
  5
1A
102
{ACAD_REACTORS
330
C
102
}
330
C
100
AcDbDictionary
281
     1
  3
Layout1
350
1E
  3
Layout2
350
26
  3
Model
350
22
  0
DICTIONARY
  5
3B
102
{ACAD_REACTORS
330
C
102
}
330
C
100
AcDbDictionary
281
     1
  3
ByBlock
350
3D
  3
ByLayer
350
3C
  3
Global
350
3E
  0
DICTIONARY
  5
27A
102
{ACAD_REACTORS
330
C
102
}
330
C
100
AcDbDictionary
281
     1
  0
DICTIONARY
  5
17
102
{ACAD_REACTORS
330
C
102
}
330
C
100
AcDbDictionary
281
     1
  3
Standard
350
18
  0
DICTIONARY
  5
19
102
{ACAD_REACTORS
330
C
102
}
330
C
100
AcDbDictionary
281
     1
  0
ACDBDICTIONARYWDFLT
  5
E
102
{ACAD_REACTORS
330
C
102
}
330
C
100
AcDbDictionary
281
     1
  3
Normal
350
F
100
AcDbDictionaryWithDefault
340
F
  0
DICTIONARY
  5
2A
102
{ACAD_REACTORS
330
C
102
}
330
C
100
AcDbDictionary
281
     1
  3
2dWireframe
350
2F
  3
3D Hidden
350
31
  3
3dWireframe
350
30
  3
Basic
350
32
  3
Brighten
350
36
  3
ColorChange
350
3A
  3
Conceptual
350
34
  3
Dim
350
35
  3
Facepattern
350
39
  3
Flat
350
2B
  3
FlatWithEdges
350
2C
  3
Gouraud
350
2D
  3
GouraudWithEdges
350
2E
  3
Linepattern
350
38
  3
Realistic
350
33
  3
Thicken
350
37
  0
DICTIONARY
  5
278
102
{ACAD_REACTORS
330
C
102
}
330
C
100
AcDbDictionary
281
     1
  3
DIMASSOC
350
27B
  3
HIDETEXT
350
27C
  0
LAYOUT
  5
1E
102
{ACAD_REACTORS
330
1A
102
}
330
1A
100
AcDbPlotSettings
  1

  2
none_device
  4

  6

 40
0.0
 41
0.0
 42
0.0
 43
0.0
 44
0.0
 45
0.0
 46
0.0
 47
0.0
 48
0.0
 49
0.0
140
0.0
141
0.0
142
1.0
143
1.0
 70
   688
 72
     0
 73
     0
 74
     5
  7

 75
    16
147
1.0
148
0.0
149
0.0
100
AcDbLayout
  1
Layout1
 70
     1
 71
     1
 10
0.0
 20
0.0
 11
12.0
 21
9.0
 12
0.0
 22
0.0
 32
0.0
 14
1.00000000000000E+20
 24
1.00000000000000E+20
 34
1.00000000000000E+20
 15
-1.00000000000000E+20
 25
-1.00000000000000E+20
 35
-1.00000000000000E+20
146
0.0
 13
0.0
 23
0.0
 33
0.0
 16
1.0
 26
0.0
 36
0.0
 17
0.0
 27
1.0
 37
0.0
 76
     0
330
1B
  0
LAYOUT
  5
26
102
{ACAD_REACTORS
330
1A
102
}
330
1A
100
AcDbPlotSettings
  1

  2
none_device
  4

  6

 40
0.0
 41
0.0
 42
0.0
 43
0.0
 44
0.0
 45
0.0
 46
0.0
 47
0.0
 48
0.0
 49
0.0
140
0.0
141
0.0
142
1.0
143
1.0
 70
   688
 72
     0
 73
     0
 74
     5
  7

 75
    16
147
1.0
148
0.0
149
0.0
100
AcDbLayout
  1
Layout2
 70
     1
 71
     2
 10
0.0
 20
0.0
 11
0.0
 21
0.0
 12
0.0
 22
0.0
 32
0.0
 14
0.0
 24
0.0
 34
0.0
 15
0.0
 25
0.0
 35
0.0
146
0.0
 13
0.0
 23
0.0
 33
0.0
 16
1.0
 26
0.0
 36
0.0
 17
0.0
 27
1.0
 37
0.0
 76
     0
330
23
  0
LAYOUT
  5
22
102
{ACAD_REACTORS
330
1A
102
}
330
1A
100
AcDbPlotSettings
  1

  2
none_device
  4

  6

 40
0.0
 41
0.0
 42
0.0
 43
0.0
 44
0.0
 45
0.0
 46
0.0
 47
0.0
 48
0.0
 49
0.0
140
0.0
141
0.0
142
1.0
143
1.0
 70
  1712
 72
     0
 73
     0
 74
     0
  7

 75
     0
147
1.0
148
0.0
149
0.0
100
AcDbLayout
  1
Model
 70
     1
 71
     0
 10
0.0
 20
0.0
 11
12.0
 21
9.0
 12
0.0
 22
0.0
 32
0.0
 14
-105.0000000000001
 24
0.0
 34
0.0
 15
0.0
 25
148.5000000000001
 35
0.0
146
0.0
 13
0.0
 23
0.0
 33
0.0
 16
1.0
 26
0.0
 36
0.0
 17
0.0
 27
1.0
 37
0.0
 76
     0
330
1F
331
29
  0
MATERIAL
  5
3D
102
{ACAD_REACTORS
330
3B
102
}
102
{ACAD_XDICTIONARY
360
29F
102
}
330
3B
100
AcDbMaterial
  1
ByBlock
  0
MATERIAL
  5
3C
102
{ACAD_REACTORS
330
3B
102
}
102
{ACAD_XDICTIONARY
360
29D
102
}
330
3B
100
AcDbMaterial
  1
ByLayer
  0
MATERIAL
  5
3E
102
{ACAD_REACTORS
330
3B
102
}
102
{ACAD_XDICTIONARY
360
2A1
102
}
330
3B
100
AcDbMaterial
  1
Global
  0
MLINESTYLE
  5
18
102
{ACAD_REACTORS
330
17
102
}
330
17
100
AcDbMlineStyle
  2
Standard
 70
     0
  3

 62
   256
 51
90.0
 52
90.0
 71
     2
 49
0.5
 62
   256
  6
BYLAYER
 49
-0.5
 62
   256
  6
BYLAYER
  0
ACDBPLACEHOLDER
  5
F
102
{ACAD_REACTORS
330
E
102
}
330
E
  0
VISUALSTYLE
  5
2F
102
{ACAD_REACTORS
330
2A
102
}
102
{ACAD_XDICTIONARY
360
285
102
}
330
2A
100
AcDbVisualStyle
  2
2dWireframe
 70
     4
 71
     0
 72
     2
 73
     0
 90
        0
 40
-0.6
 41
-30.0
 62
     5
 63
     7
 74
     1
 91
        4
 64
     7
 65
   257
 75
     1
175
     1
 42
1.0
 92
        0
 66
   257
 43
1.0
 76
     1
 77
     6
 78
     2
 67
     7
 79
     5
170
     0
171
     0
290
     0
174
     0
 93
        1
 44
0.0
173
     0
291
     0
 45
0.0
1001
ACAD
1000
AcDbSavedByObjectVersion
1070
     0
  0
VISUALSTYLE
  5
31
102
{ACAD_REACTORS
330
2A
102
}
102
{ACAD_XDICTIONARY
360
289
102
}
330
2A
100
AcDbVisualStyle
  2
3D Hidden
 70
     6
 71
     1
 72
     2
 73
     2
 90
        0
 40
-0.6
 41
-30.0
 62
     5
 63
     7
 74
     2
 91
        2
 64
     7
 65
   257
 75
     2
175
     1
 42
40.0
 92
        0
 66
   257
 43
1.0
 76
     1
 77
     6
 78
     2
 67
     7
 79
     3
170
     0
171
     0
290
     0
174
     0
 93
        1
 44
0.0
173
     0
291
     0
 45
0.0
1001
ACAD
1000
AcDbSavedByObjectVersion
1070
     0
  0
VISUALSTYLE
  5
30
102
{ACAD_REACTORS
330
2A
102
}
102
{ACAD_XDICTIONARY
360
287
102
}
330
2A
100
AcDbVisualStyle
  2
3dWireframe
 70
     5
 71
     0
 72
     2
 73
     0
 90
        0
 40
-0.6
 41
-30.0
 62
     5
 63
     7
 74
     1
 91
        4
 64
     7
 65
   257
 75
     1
175
     1
 42
1.0
 92
        0
 66
   257
 43
1.0
 76
     1
 77
     6
 78
     2
 67
     7
 79
     5
170
     0
171
     0
290
     0
174
     0
 93
        1
 44
0.0
173
     0
291
     0
 45
0.0
1001
ACAD
1000
AcDbSavedByObjectVersion
1070
     0
  0
VISUALSTYLE
  5
32
102
{ACAD_REACTORS
330
2A
102
}
102
{ACAD_XDICTIONARY
360
28B
102
}
330
2A
100
AcDbVisualStyle
  2
Basic
 70
     7
 71
     1
 72
     0
 73
     1
 90
        0
 40
-0.6
 41
-30.0
 62
     5
 63
     7
 74
     0
 91
        4
 64
     7
 65
   257
 75
     1
175
     1
 42
1.0
 92
        8
 66
     7
 43
1.0
 76
     1
 77
     6
 78
     2
 67
     7
 79
     5
170
     0
171
     0
290
     0
174
     0
 93
        1
 44
0.0
173
     0
291
     1
 45
0.0
1001
ACAD
1000
AcDbSavedByObjectVersion
1070
     0
  0
VISUALSTYLE
  5
36
102
{ACAD_REACTORS
330
2A
102
}
102
{ACAD_XDICTIONARY
360
293
102
}
330
2A
100
AcDbVisualStyle
  2
Brighten
 70
    12
 71
     2
 72
     2
 73
     0
 90
        0
 40
-0.6
 41
-30.0
 62
     5
 63
     7
 74
     1
 91
        4
 64
     7
 65
   257
 75
     1
175
     1
 42
1.0
 92
        8
 66
     7
 43
1.0
 76
     1
 77
     6
 78
     2
 67
     7
 79
     5
170
     0
171
     0
290
     0
174
     0
 93
        1
 44
50.0
173
     0
291
     1
 45
0.0
1001
ACAD
1000
AcDbSavedByObjectVersion
1070
     0
  0
VISUALSTYLE
  5
3A
102
{ACAD_REACTORS
330
2A
102
}
102
{ACAD_XDICTIONARY
360
29B
102
}
330
2A
100
AcDbVisualStyle
  2
ColorChange
 70
    16
 71
     2
 72
     2
 73
     3
 90
        0
 40
-0.6
 41
-30.0
 62
     5
 63
     8
 74
     1
 91
        4
 64
     7
 65
   257
 75
     1
175
     1
 42
1.0
 92
        8
 66
     8
 43
1.0
 76
     1
 77
     6
 78
     2
 67
     7
 79
     5
170
     0
171
     0
290
     0
174
     0
 93
        1
 44
0.0
173
     0
291
     1
 45
0.0
1001
ACAD
1000
AcDbSavedByObjectVersion
1070
     0
  0
VISUALSTYLE
  5
34
102
{ACAD_REACTORS
330
2A
102
}
102
{ACAD_XDICTIONARY
360
28F
102
}
330
2A
100
AcDbVisualStyle
  2
Conceptual
 70
     9
 71
     3
 72
     2
 73
     0
 90
        0
 40
-0.6
 41
-30.0
 62
     5
 63
     7
 74
     2
 91
        2
 64
     7
 65
   257
 75
     1
175
     1
 42
40.0
 92
        8
 66
     7
 43
1.0
 76
     1
 77
     6
 78
     2
 67
     7
 79
     3
170
     0
171
     0
290
     0
174
     0
 93
        1
 44
0.0
173
     0
291
     0
 45
0.0
1001
ACAD
1000
AcDbSavedByObjectVersion
1070
     0
  0
VISUALSTYLE
  5
35
102
{ACAD_REACTORS
330
2A
102
}
102
{ACAD_XDICTIONARY
360
291
102
}
330
2A
100
AcDbVisualStyle
  2
Dim
 70
    11
 71
     2
 72
     2
 73
     0
 90
        0
 40
-0.6
 41
-30.0
 62
     5
 63
     7
 74
     1
 91
        4
 64
     7
 65
   257
 75
     1
175
     1
 42
1.0
 92
        8
 66
     7
 43
1.0
 76
     1
 77
     6
 78
     2
 67
     7
 79
     5
170
     0
171
     0
290
     0
174
     0
 93
        1
 44
-50.0
173
     0
291
     1
 45
0.0
1001
ACAD
1000
AcDbSavedByObjectVersion
1070
     0
  0
VISUALSTYLE
  5
39
102
{ACAD_REACTORS
330
2A
102
}
102
{ACAD_XDICTIONARY
360
299
102
}
330
2A
100
AcDbVisualStyle
  2
Facepattern
 70
    15
 71
     2
 72
     2
 73
     0
 90
        0
 40
-0.6
 41
-30.0
 62
     5
 63
     7
 74
     1
 91
        4
 64
     7
 65
   257
 75
     1
175
     1
 42
1.0
 92
        8
 66
     7
 43
1.0
 76
     1
 77
     6
 78
     2
 67
     7
 79
     5
170
     0
171
     0
290
     0
174
     0
 93
        1
 44
0.0
173
     0
291
     1
 45
0.0
1001
ACAD
1000
AcDbSavedByObjectVersion
1070
     0
  0
VISUALSTYLE
  5
2B
102
{ACAD_REACTORS
330
2A
102
}
102
{ACAD_XDICTIONARY
360
27D
102
}
330
2A
100
AcDbVisualStyle
  2
Flat
 70
     0
 71
     2
 72
     1
 73
     1
 90
        2
 40
-0.6
 41
30.0
 62
     5
 63
     7
 74
     0
 91
        4
 64
     7
 65
   257
 75
     1
175
     1
 42
1.0
 92
        8
 66
     7
 43
1.0
 76
     1
 77
     6
 78
     2
 67
     7
 79
     5
170
     0
171
     0
290
     0
174
     0
 93
       13
 44
0.0
173
     0
291
     1
 45
0.0
1001
ACAD
1000
AcDbSavedByObjectVersion
1070
     0
  0
VISUALSTYLE
  5
2C
102
{ACAD_REACTORS
330
2A
102
}
102
{ACAD_XDICTIONARY
360
27F
102
}
330
2A
100
AcDbVisualStyle
  2
FlatWithEdges
 70
     1
 71
     2
 72
     1
 73
     1
 90
        2
 40
-0.6
 41
30.0
 62
     5
 63
     7
 74
     1
 91
        4
 64
     7
 65
   257
 75
     1
175
     1
 42
1.0
 92
        0
 66
   257
 43
1.0
 76
     1
 77
     6
 78
     2
 67
     7
 79
     5
170
     0
171
     0
290
     0
174
     0
 93
       13
 44
0.0
173
     0
291
     1
 45
0.0
1001
ACAD
1000
AcDbSavedByObjectVersion
1070
     0
  0
VISUALSTYLE
  5
2D
102
{ACAD_REACTORS
330
2A
102
}
102
{ACAD_XDICTIONARY
360
281
102
}
330
2A
100
AcDbVisualStyle
  2
Gouraud
 70
     2
 71
     2
 72
     2
 73
     1
 90
        2
 40
-0.6
 41
30.0
 62
     5
 63
     7
 74
     0
 91
        4
 64
     7
 65
   257
 75
     1
175
     1
 42
1.0
 92
        0
 66
     7
 43
1.0
 76
     1
 77
     6
 78
     2
 67
     7
 79
     5
170
     0
171
     0
290
     0
174
     0
 93
       13
 44
0.0
173
     0
291
     1
 45
0.0
1001
ACAD
1000
AcDbSavedByObjectVersion
1070
     0
  0
VISUALSTYLE
  5
2E
102
{ACAD_REACTORS
330
2A
102
}
102
{ACAD_XDICTIONARY
360
283
102
}
330
2A
100
AcDbVisualStyle
  2
GouraudWithEdges
 70
     3
 71
     2
 72
     2
 73
     1
 90
        2
 40
-0.6
 41
30.0
 62
     5
 63
     7
 74
     1
 91
        4
 64
     7
 65
   257
 75
     1
175
     1
 42
1.0
 92
        0
 66
   257
 43
1.0
 76
     1
 77
     6
 78
     2
 67
     7
 79
     5
170
     0
171
     0
290
     0
174
     0
 93
       13
 44
0.0
173
     0
291
     1
 45
0.0
1001
ACAD
1000
AcDbSavedByObjectVersion
1070
     0
  0
VISUALSTYLE
  5
38
102
{ACAD_REACTORS
330
2A
102
}
102
{ACAD_XDICTIONARY
360
297
102
}
330
2A
100
AcDbVisualStyle
  2
Linepattern
 70
    14
 71
     2
 72
     2
 73
     0
 90
        0
 40
-0.6
 41
-30.0
 62
     5
 63
     7
 74
     1
 91
        4
 64
     7
 65
   257
 75
     7
175
     7
 42
1.0
 92
        8
 66
     7
 43
1.0
 76
     1
 77
     6
 78
     2
 67
     7
 79
     5
170
     0
171
     0
290
     0
174
     0
 93
        1
 44
0.0
173
     0
291
     1
 45
0.0
1001
ACAD
1000
AcDbSavedByObjectVersion
1070
     0
  0
VISUALSTYLE
  5
33
102
{ACAD_REACTORS
330
2A
102
}
102
{ACAD_XDICTIONARY
360
28D
102
}
330
2A
100
AcDbVisualStyle
  2
Realistic
 70
     8
 71
     2
 72
     2
 73
     0
 90
        0
 40
-0.6
 41
-30.0
 62
     5
 63
     7
 74
     1
 91
        0
 64
     7
 65
   257
 75
     1
175
     1
 42
1.0
 92
        8
 66
     8
 43
1.0
 76
     1
 77
     6
 78
     2
 67
     7
 79
     5
170
     0
171
     0
290
     0
174
     0
 93
       13
 44
0.0
173
     0
291
     0
 45
0.0
1001
ACAD
1000
AcDbSavedByObjectVersion
1070
     0
  0
VISUALSTYLE
  5
37
102
{ACAD_REACTORS
330
2A
102
}
102
{ACAD_XDICTIONARY
360
295
102
}
330
2A
100
AcDbVisualStyle
  2
Thicken
 70
    13
 71
     2
 72
     2
 73
     0
 90
        0
 40
-0.6
 41
-30.0
 62
     5
 63
     7
 74
     1
 91
        4
 64
     7
 65
   257
 75
     1
175
     1
 42
1.0
 92
       12
 66
     7
 43
1.0
 76
     1
 77
     6
 78
     2
 67
     7
 79
     5
170
     0
171
     0
290
     0
174
     0
 93
        1
 44
0.0
173
     0
291
     1
 45
0.0
1001
ACAD
1000
AcDbSavedByObjectVersion
1070
     0
  0
DICTIONARYVAR
  5
27B
102
{ACAD_REACTORS
330
278
102
}
330
278
100
DictionaryVariables
280
     0
  1
2
  0
DICTIONARYVAR
  5
27C
102
{ACAD_REACTORS
330
278
102
}
330
278
100
DictionaryVariables
280
     0
  1
1
  0
DICTIONARY
  5
29F
330
3D
100
AcDbDictionary
280
     1
281
     1
  3
ACAD_XREC_ROUNDTRIP
360
2A0
  0
DICTIONARY
  5
29D
330
3C
100
AcDbDictionary
280
     1
281
     1
  3
ACAD_XREC_ROUNDTRIP
360
29E
  0
DICTIONARY
  5
2A1
330
3E
100
AcDbDictionary
280
     1
281
     1
  3
ACAD_XREC_ROUNDTRIP
360
2A2
  0
DICTIONARY
  5
285
330
2F
100
AcDbDictionary
280
     1
281
     1
  3
ACAD_XREC_ROUNDTRIP
360
286
  0
DICTIONARY
  5
289
330
31
100
AcDbDictionary
280
     1
281
     1
  3
ACAD_XREC_ROUNDTRIP
360
28A
  0
DICTIONARY
  5
287
330
30
100
AcDbDictionary
280
     1
281
     1
  3
ACAD_XREC_ROUNDTRIP
360
288
  0
DICTIONARY
  5
28B
330
32
100
AcDbDictionary
280
     1
281
     1
  3
ACAD_XREC_ROUNDTRIP
360
28C
  0
DICTIONARY
  5
293
330
36
100
AcDbDictionary
280
     1
281
     1
  3
ACAD_XREC_ROUNDTRIP
360
294
  0
DICTIONARY
  5
29B
330
3A
100
AcDbDictionary
280
     1
281
     1
  3
ACAD_XREC_ROUNDTRIP
360
29C
  0
DICTIONARY
  5
28F
330
34
100
AcDbDictionary
280
     1
281
     1
  3
ACAD_XREC_ROUNDTRIP
360
290
  0
DICTIONARY
  5
291
330
35
100
AcDbDictionary
280
     1
281
     1
  3
ACAD_XREC_ROUNDTRIP
360
292
  0
DICTIONARY
  5
299
330
39
100
AcDbDictionary
280
     1
281
     1
  3
ACAD_XREC_ROUNDTRIP
360
29A
  0
DICTIONARY
  5
27D
330
2B
100
AcDbDictionary
280
     1
281
     1
  3
ACAD_XREC_ROUNDTRIP
360
27E
  0
DICTIONARY
  5
27F
330
2C
100
AcDbDictionary
280
     1
281
     1
  3
ACAD_XREC_ROUNDTRIP
360
280
  0
DICTIONARY
  5
281
330
2D
100
AcDbDictionary
280
     1
281
     1
  3
ACAD_XREC_ROUNDTRIP
360
282
  0
DICTIONARY
  5
283
330
2E
100
AcDbDictionary
280
     1
281
     1
  3
ACAD_XREC_ROUNDTRIP
360
284
  0
DICTIONARY
  5
297
330
38
100
AcDbDictionary
280
     1
281
     1
  3
ACAD_XREC_ROUNDTRIP
360
298
  0
DICTIONARY
  5
28D
330
33
100
AcDbDictionary
280
     1
281
     1
  3
ACAD_XREC_ROUNDTRIP
360
28E
  0
DICTIONARY
  5
295
330
37
100
AcDbDictionary
280
     1
281
     1
  3
ACAD_XREC_ROUNDTRIP
360
296
  0
XRECORD
  5
2A0
102
{ACAD_REACTORS
330
29F
102
}
330
29F
100
AcDbXrecord
280
     1
102
MATERIAL
148
0.0
149
0.0
149
0.0
 93
        0
 94
      127
282
     0
 72
     1
 77
     1
171
     1
175
     1
179
     1
273
     0
  0
XRECORD
  5
29E
102
{ACAD_REACTORS
330
29D
102
}
330
29D
100
AcDbXrecord
280
     1
102
MATERIAL
148
0.0
149
0.0
149
0.0
 93
        0
 94
      127
282
     0
 72
     1
 77
     1
171
     1
175
     1
179
     1
273
     0
  0
XRECORD
  5
2A2
102
{ACAD_REACTORS
330
2A1
102
}
330
2A1
100
AcDbXrecord
280
     1
102
MATERIAL
148
0.0
149
0.0
149
0.0
 93
        0
 94
      127
282
     0
 72
     1
 77
     1
171
     1
175
     1
179
     1
273
     0
  0
XRECORD
  5
286
102
{ACAD_REACTORS
330
285
102
}
330
285
100
AcDbXrecord
280
     1
102
RTVSPropertyOp0
 70
     1
102
RTVSPropertyOp1
 70
     1
102
RTVSPropertyOp2
 70
     1
102
RTVSPropertyOp3
 70
     1
102
RTVSPropertyOp4
 70
     1
102
RTVSPropertyOp5
 70
     1
102
RTVSPropertyOp6
 70
     1
102
RTVSPropertyOp7
 70
     1
102
RTVSPropertyOp8
 70
     1
102
RTVSPropertyOp9
 70
     1
102
RTVSPropertyOp10
 70
     1
102
RTVSPropertyOp11
 70
     1
102
RTVSPropertyOp12
 70
     1
102
RTVSPropertyOp13
 70
     1
102
RTVSPropertyOp14
 70
     1
102
RTVSPropertyOp15
 70
     1
102
RTVSPropertyOp16
 70
     1
102
RTVSPropertyOp17
 70
     1
102
RTVSPropertyOp18
 70
     1
102
RTVSPropertyOp19
 70
     1
102
RTVSPropertyOp20
 70
     1
102
RTVSPropertyOp21
 70
     1
102
RTVSPropertyOp22
 70
     1
102
RTVSPropertyOp23
 70
     1
102
RTVSPropertyOp24
 70
     1
102
RTVSPropertyOp25
 70
     1
102
RTVSPropertyOp26
 70
     1
102
RTVSPropertyOp27
 70
     1
102
RTVSPropertyOp28
 70
     1
102
RTVSPropertyOp29
 70
     1
102
RTVSPropertyOp30
 70
     1
102
RTVSPropertyOp31
 70
     1
102
RTVSPropertyOp32
 70
     1
  0
XRECORD
  5
28A
102
{ACAD_REACTORS
330
289
102
}
330
289
100
AcDbXrecord
280
     1
102
RTVSPropertyOp0
 70
     1
102
RTVSPropertyOp1
 70
     1
102
RTVSPropertyOp2
 70
     1
102
RTVSPropertyOp3
 70
     1
102
RTVSPropertyOp4
 70
     1
102
RTVSPropertyOp5
 70
     1
102
RTVSPropertyOp6
 70
     1
102
RTVSPropertyOp7
 70
     1
102
RTVSPropertyOp8
 70
     1
102
RTVSPropertyOp9
 70
     1
102
RTVSPropertyOp10
 70
     1
102
RTVSPropertyOp11
 70
     1
102
RTVSPropertyOp12
 70
     1
102
RTVSPropertyOp13
 70
     1
102
RTVSPropertyOp14
 70
     1
102
RTVSPropertyOp15
 70
     1
102
RTVSPropertyOp16
 70
     1
102
RTVSPropertyOp17
 70
     1
102
RTVSPropertyOp18
 70
     1
102
RTVSPropertyOp19
 70
     1
102
RTVSPropertyOp20
 70
     1
102
RTVSPropertyOp21
 70
     1
102
RTVSPropertyOp22
 70
     1
102
RTVSPropertyOp23
 70
     1
102
RTVSPropertyOp24
 70
     1
102
RTVSPropertyOp25
 70
     1
102
RTVSPropertyOp26
 70
     1
102
RTVSPropertyOp27
 70
     1
102
RTVSPropertyOp28
 70
     1
102
RTVSPropertyOp29
 70
     1
102
RTVSPropertyOp30
 70
     1
102
RTVSPropertyOp31
 70
     1
102
RTVSPropertyOp32
 70
     1
  0
XRECORD
  5
288
102
{ACAD_REACTORS
330
287
102
}
330
287
100
AcDbXrecord
280
     1
102
RTVSPropertyOp0
 70
     1
102
RTVSPropertyOp1
 70
     1
102
RTVSPropertyOp2
 70
     1
102
RTVSPropertyOp3
 70
     1
102
RTVSPropertyOp4
 70
     1
102
RTVSPropertyOp5
 70
     1
102
RTVSPropertyOp6
 70
     1
102
RTVSPropertyOp7
 70
     1
102
RTVSPropertyOp8
 70
     1
102
RTVSPropertyOp9
 70
     1
102
RTVSPropertyOp10
 70
     1
102
RTVSPropertyOp11
 70
     1
102
RTVSPropertyOp12
 70
     1
102
RTVSPropertyOp13
 70
     1
102
RTVSPropertyOp14
 70
     1
102
RTVSPropertyOp15
 70
     1
102
RTVSPropertyOp16
 70
     1
102
RTVSPropertyOp17
 70
     1
102
RTVSPropertyOp18
 70
     1
102
RTVSPropertyOp19
 70
     1
102
RTVSPropertyOp20
 70
     1
102
RTVSPropertyOp21
 70
     1
102
RTVSPropertyOp22
 70
     1
102
RTVSPropertyOp23
 70
     1
102
RTVSPropertyOp24
 70
     1
102
RTVSPropertyOp25
 70
     1
102
RTVSPropertyOp26
 70
     1
102
RTVSPropertyOp27
 70
     1
102
RTVSPropertyOp28
 70
     1
102
RTVSPropertyOp29
 70
     1
102
RTVSPropertyOp30
 70
     1
102
RTVSPropertyOp31
 70
     1
102
RTVSPropertyOp32
 70
     1
  0
XRECORD
  5
28C
102
{ACAD_REACTORS
330
28B
102
}
330
28B
100
AcDbXrecord
280
     1
102
RTVSPropertyOp0
 70
     1
102
RTVSPropertyOp1
 70
     1
102
RTVSPropertyOp2
 70
     1
102
RTVSPropertyOp3
 70
     1
102
RTVSPropertyOp4
 70
     1
102
RTVSPropertyOp5
 70
     1
102
RTVSPropertyOp6
 70
     1
102
RTVSPropertyOp7
 70
     1
102
RTVSPropertyOp8
 70
     1
102
RTVSPropertyOp9
 70
     1
102
RTVSPropertyOp10
 70
     1
102
RTVSPropertyOp11
 70
     1
102
RTVSPropertyOp12
 70
     1
102
RTVSPropertyOp13
 70
     1
102
RTVSPropertyOp14
 70
     1
102
RTVSPropertyOp15
 70
     1
102
RTVSPropertyOp16
 70
     1
102
RTVSPropertyOp17
 70
     1
102
RTVSPropertyOp18
 70
     1
102
RTVSPropertyOp19
 70
     1
102
RTVSPropertyOp20
 70
     1
102
RTVSPropertyOp21
 70
     1
102
RTVSPropertyOp22
 70
     1
102
RTVSPropertyOp23
 70
     1
102
RTVSPropertyOp24
 70
     1
102
RTVSPropertyOp25
 70
     1
102
RTVSPropertyOp26
 70
     1
102
RTVSPropertyOp27
 70
     1
102
RTVSPropertyOp28
 70
     1
102
RTVSPropertyOp29
 70
     1
102
RTVSPropertyOp30
 70
     1
102
RTVSPropertyOp31
 70
     1
102
RTVSPropertyOp32
 70
     1
  0
XRECORD
  5
294
102
{ACAD_REACTORS
330
293
102
}
330
293
100
AcDbXrecord
280
     1
102
RTVSPropertyOp0
 70
     1
102
RTVSPropertyOp1
 70
     1
102
RTVSPropertyOp2
 70
     1
102
RTVSPropertyOp3
 70
     1
102
RTVSPropertyOp4
 70
     1
102
RTVSPropertyOp5
 70
     1
102
RTVSPropertyOp6
 70
     1
102
RTVSPropertyOp7
 70
     1
102
RTVSPropertyOp8
 70
     1
102
RTVSPropertyOp9
 70
     1
102
RTVSPropertyOp10
 70
     1
102
RTVSPropertyOp11
 70
     1
102
RTVSPropertyOp12
 70
     1
102
RTVSPropertyOp13
 70
     1
102
RTVSPropertyOp14
 70
     1
102
RTVSPropertyOp15
 70
     1
102
RTVSPropertyOp16
 70
     1
102
RTVSPropertyOp17
 70
     1
102
RTVSPropertyOp18
 70
     1
102
RTVSPropertyOp19
 70
     1
102
RTVSPropertyOp20
 70
     1
102
RTVSPropertyOp21
 70
     1
102
RTVSPropertyOp22
 70
     1
102
RTVSPropertyOp23
 70
     1
102
RTVSPropertyOp24
 70
     1
102
RTVSPropertyOp25
 70
     1
102
RTVSPropertyOp26
 70
     1
102
RTVSPropertyOp27
 70
     1
102
RTVSPropertyOp28
 70
     1
102
RTVSPropertyOp29
 70
     1
102
RTVSPropertyOp30
 70
     1
102
RTVSPropertyOp31
 70
     1
102
RTVSPropertyOp32
 70
     1
  0
XRECORD
  5
29C
102
{ACAD_REACTORS
330
29B
102
}
330
29B
100
AcDbXrecord
280
     1
102
RTVSPropertyOp0
 70
     1
102
RTVSPropertyOp1
 70
     1
102
RTVSPropertyOp2
 70
     1
102
RTVSPropertyOp3
 70
     1
102
RTVSPropertyOp4
 70
     1
102
RTVSPropertyOp5
 70
     1
102
RTVSPropertyOp6
 70
     1
102
RTVSPropertyOp7
 70
     1
102
RTVSPropertyOp8
 70
     1
102
RTVSPropertyOp9
 70
     1
102
RTVSPropertyOp10
 70
     1
102
RTVSPropertyOp11
 70
     1
102
RTVSPropertyOp12
 70
     1
102
RTVSPropertyOp13
 70
     1
102
RTVSPropertyOp14
 70
     1
102
RTVSPropertyOp15
 70
     1
102
RTVSPropertyOp16
 70
     1
102
RTVSPropertyOp17
 70
     1
102
RTVSPropertyOp18
 70
     1
102
RTVSPropertyOp19
 70
     1
102
RTVSPropertyOp20
 70
     1
102
RTVSPropertyOp21
 70
     1
102
RTVSPropertyOp22
 70
     1
102
RTVSPropertyOp23
 70
     1
102
RTVSPropertyOp24
 70
     1
102
RTVSPropertyOp25
 70
     1
102
RTVSPropertyOp26
 70
     1
102
RTVSPropertyOp27
 70
     1
102
RTVSPropertyOp28
 70
     1
102
RTVSPropertyOp29
 70
     1
102
RTVSPropertyOp30
 70
     1
102
RTVSPropertyOp31
 70
     1
102
RTVSPropertyOp32
 70
     1
  0
XRECORD
  5
290
102
{ACAD_REACTORS
330
28F
102
}
330
28F
100
AcDbXrecord
280
     1
102
RTVSPropertyOp0
 70
     1
102
RTVSPropertyOp1
 70
     1
102
RTVSPropertyOp2
 70
     1
102
RTVSPropertyOp3
 70
     1
102
RTVSPropertyOp4
 70
     1
102
RTVSPropertyOp5
 70
     1
102
RTVSPropertyOp6
 70
     1
102
RTVSPropertyOp7
 70
     1
102
RTVSPropertyOp8
 70
     1
102
RTVSPropertyOp9
 70
     1
102
RTVSPropertyOp10
 70
     1
102
RTVSPropertyOp11
 70
     1
102
RTVSPropertyOp12
 70
     1
102
RTVSPropertyOp13
 70
     1
102
RTVSPropertyOp14
 70
     1
102
RTVSPropertyOp15
 70
     1
102
RTVSPropertyOp16
 70
     1
102
RTVSPropertyOp17
 70
     1
102
RTVSPropertyOp18
 70
     1
102
RTVSPropertyOp19
 70
     1
102
RTVSPropertyOp20
 70
     1
102
RTVSPropertyOp21
 70
     1
102
RTVSPropertyOp22
 70
     1
102
RTVSPropertyOp23
 70
     1
102
RTVSPropertyOp24
 70
     1
102
RTVSPropertyOp25
 70
     1
102
RTVSPropertyOp26
 70
     1
102
RTVSPropertyOp27
 70
     1
102
RTVSPropertyOp28
 70
     1
102
RTVSPropertyOp29
 70
     1
102
RTVSPropertyOp30
 70
     1
102
RTVSPropertyOp31
 70
     1
102
RTVSPropertyOp32
 70
     1
  0
XRECORD
  5
292
102
{ACAD_REACTORS
330
291
102
}
330
291
100
AcDbXrecord
280
     1
102
RTVSPropertyOp0
 70
     1
102
RTVSPropertyOp1
 70
     1
102
RTVSPropertyOp2
 70
     1
102
RTVSPropertyOp3
 70
     1
102
RTVSPropertyOp4
 70
     1
102
RTVSPropertyOp5
 70
     1
102
RTVSPropertyOp6
 70
     1
102
RTVSPropertyOp7
 70
     1
102
RTVSPropertyOp8
 70
     1
102
RTVSPropertyOp9
 70
     1
102
RTVSPropertyOp10
 70
     1
102
RTVSPropertyOp11
 70
     1
102
RTVSPropertyOp12
 70
     1
102
RTVSPropertyOp13
 70
     1
102
RTVSPropertyOp14
 70
     1
102
RTVSPropertyOp15
 70
     1
102
RTVSPropertyOp16
 70
     1
102
RTVSPropertyOp17
 70
     1
102
RTVSPropertyOp18
 70
     1
102
RTVSPropertyOp19
 70
     1
102
RTVSPropertyOp20
 70
     1
102
RTVSPropertyOp21
 70
     1
102
RTVSPropertyOp22
 70
     1
102
RTVSPropertyOp23
 70
     1
102
RTVSPropertyOp24
 70
     1
102
RTVSPropertyOp25
 70
     1
102
RTVSPropertyOp26
 70
     1
102
RTVSPropertyOp27
 70
     1
102
RTVSPropertyOp28
 70
     1
102
RTVSPropertyOp29
 70
     1
102
RTVSPropertyOp30
 70
     1
102
RTVSPropertyOp31
 70
     1
102
RTVSPropertyOp32
 70
     1
  0
XRECORD
  5
29A
102
{ACAD_REACTORS
330
299
102
}
330
299
100
AcDbXrecord
280
     1
102
RTVSPropertyOp0
 70
     1
102
RTVSPropertyOp1
 70
     1
102
RTVSPropertyOp2
 70
     1
102
RTVSPropertyOp3
 70
     1
102
RTVSPropertyOp4
 70
     1
102
RTVSPropertyOp5
 70
     1
102
RTVSPropertyOp6
 70
     1
102
RTVSPropertyOp7
 70
     1
102
RTVSPropertyOp8
 70
     1
102
RTVSPropertyOp9
 70
     1
102
RTVSPropertyOp10
 70
     1
102
RTVSPropertyOp11
 70
     1
102
RTVSPropertyOp12
 70
     1
102
RTVSPropertyOp13
 70
     1
102
RTVSPropertyOp14
 70
     1
102
RTVSPropertyOp15
 70
     1
102
RTVSPropertyOp16
 70
     1
102
RTVSPropertyOp17
 70
     1
102
RTVSPropertyOp18
 70
     1
102
RTVSPropertyOp19
 70
     1
102
RTVSPropertyOp20
 70
     1
102
RTVSPropertyOp21
 70
     1
102
RTVSPropertyOp22
 70
     1
102
RTVSPropertyOp23
 70
     1
102
RTVSPropertyOp24
 70
     1
102
RTVSPropertyOp25
 70
     1
102
RTVSPropertyOp26
 70
     1
102
RTVSPropertyOp27
 70
     1
102
RTVSPropertyOp28
 70
     1
102
RTVSPropertyOp29
 70
     1
102
RTVSPropertyOp30
 70
     1
102
RTVSPropertyOp31
 70
     1
102
RTVSPropertyOp32
 70
     1
  0
XRECORD
  5
27E
102
{ACAD_REACTORS
330
27D
102
}
330
27D
100
AcDbXrecord
280
     1
102
RTVSPropertyOp0
 70
     1
102
RTVSPropertyOp1
 70
     1
102
RTVSPropertyOp2
 70
     1
102
RTVSPropertyOp3
 70
     1
102
RTVSPropertyOp4
 70
     1
102
RTVSPropertyOp5
 70
     1
102
RTVSPropertyOp6
 70
     1
102
RTVSPropertyOp7
 70
     1
102
RTVSPropertyOp8
 70
     1
102
RTVSPropertyOp9
 70
     1
102
RTVSPropertyOp10
 70
     1
102
RTVSPropertyOp11
 70
     1
102
RTVSPropertyOp12
 70
     1
102
RTVSPropertyOp13
 70
     1
102
RTVSPropertyOp14
 70
     1
102
RTVSPropertyOp15
 70
     1
102
RTVSPropertyOp16
 70
     1
102
RTVSPropertyOp17
 70
     1
102
RTVSPropertyOp18
 70
     1
102
RTVSPropertyOp19
 70
     1
102
RTVSPropertyOp20
 70
     1
102
RTVSPropertyOp21
 70
     1
102
RTVSPropertyOp22
 70
     1
102
RTVSPropertyOp23
 70
     1
102
RTVSPropertyOp24
 70
     1
102
RTVSPropertyOp25
 70
     1
102
RTVSPropertyOp26
 70
     1
102
RTVSPropertyOp27
 70
     1
102
RTVSPropertyOp28
 70
     1
102
RTVSPropertyOp29
 70
     1
102
RTVSPropertyOp30
 70
     1
102
RTVSPropertyOp31
 70
     1
102
RTVSPropertyOp32
 70
     1
  0
XRECORD
  5
280
102
{ACAD_REACTORS
330
27F
102
}
330
27F
100
AcDbXrecord
280
     1
102
RTVSPropertyOp0
 70
     1
102
RTVSPropertyOp1
 70
     1
102
RTVSPropertyOp2
 70
     1
102
RTVSPropertyOp3
 70
     1
102
RTVSPropertyOp4
 70
     1
102
RTVSPropertyOp5
 70
     1
102
RTVSPropertyOp6
 70
     1
102
RTVSPropertyOp7
 70
     1
102
RTVSPropertyOp8
 70
     1
102
RTVSPropertyOp9
 70
     1
102
RTVSPropertyOp10
 70
     1
102
RTVSPropertyOp11
 70
     1
102
RTVSPropertyOp12
 70
     1
102
RTVSPropertyOp13
 70
     1
102
RTVSPropertyOp14
 70
     1
102
RTVSPropertyOp15
 70
     1
102
RTVSPropertyOp16
 70
     1
102
RTVSPropertyOp17
 70
     1
102
RTVSPropertyOp18
 70
     1
102
RTVSPropertyOp19
 70
     1
102
RTVSPropertyOp20
 70
     1
102
RTVSPropertyOp21
 70
     1
102
RTVSPropertyOp22
 70
     1
102
RTVSPropertyOp23
 70
     1
102
RTVSPropertyOp24
 70
     1
102
RTVSPropertyOp25
 70
     1
102
RTVSPropertyOp26
 70
     1
102
RTVSPropertyOp27
 70
     1
102
RTVSPropertyOp28
 70
     1
102
RTVSPropertyOp29
 70
     1
102
RTVSPropertyOp30
 70
     1
102
RTVSPropertyOp31
 70
     1
102
RTVSPropertyOp32
 70
     1
  0
XRECORD
  5
282
102
{ACAD_REACTORS
330
281
102
}
330
281
100
AcDbXrecord
280
     1
102
RTVSPropertyOp0
 70
     1
102
RTVSPropertyOp1
 70
     1
102
RTVSPropertyOp2
 70
     1
102
RTVSPropertyOp3
 70
     1
102
RTVSPropertyOp4
 70
     1
102
RTVSPropertyOp5
 70
     1
102
RTVSPropertyOp6
 70
     1
102
RTVSPropertyOp7
 70
     1
102
RTVSPropertyOp8
 70
     1
102
RTVSPropertyOp9
 70
     1
102
RTVSPropertyOp10
 70
     1
102
RTVSPropertyOp11
 70
     1
102
RTVSPropertyOp12
 70
     1
102
RTVSPropertyOp13
 70
     1
102
RTVSPropertyOp14
 70
     1
102
RTVSPropertyOp15
 70
     1
102
RTVSPropertyOp16
 70
     1
102
RTVSPropertyOp17
 70
     1
102
RTVSPropertyOp18
 70
     1
102
RTVSPropertyOp19
 70
     1
102
RTVSPropertyOp20
 70
     1
102
RTVSPropertyOp21
 70
     1
102
RTVSPropertyOp22
 70
     1
102
RTVSPropertyOp23
 70
     1
102
RTVSPropertyOp24
 70
     1
102
RTVSPropertyOp25
 70
     1
102
RTVSPropertyOp26
 70
     1
102
RTVSPropertyOp27
 70
     1
102
RTVSPropertyOp28
 70
     1
102
RTVSPropertyOp29
 70
     1
102
RTVSPropertyOp30
 70
     1
102
RTVSPropertyOp31
 70
     1
102
RTVSPropertyOp32
 70
     1
  0
XRECORD
  5
284
102
{ACAD_REACTORS
330
283
102
}
330
283
100
AcDbXrecord
280
     1
102
RTVSPropertyOp0
 70
     1
102
RTVSPropertyOp1
 70
     1
102
RTVSPropertyOp2
 70
     1
102
RTVSPropertyOp3
 70
     1
102
RTVSPropertyOp4
 70
     1
102
RTVSPropertyOp5
 70
     1
102
RTVSPropertyOp6
 70
     1
102
RTVSPropertyOp7
 70
     1
102
RTVSPropertyOp8
 70
     1
102
RTVSPropertyOp9
 70
     1
102
RTVSPropertyOp10
 70
     1
102
RTVSPropertyOp11
 70
     1
102
RTVSPropertyOp12
 70
     1
102
RTVSPropertyOp13
 70
     1
102
RTVSPropertyOp14
 70
     1
102
RTVSPropertyOp15
 70
     1
102
RTVSPropertyOp16
 70
     1
102
RTVSPropertyOp17
 70
     1
102
RTVSPropertyOp18
 70
     1
102
RTVSPropertyOp19
 70
     1
102
RTVSPropertyOp20
 70
     1
102
RTVSPropertyOp21
 70
     1
102
RTVSPropertyOp22
 70
     1
102
RTVSPropertyOp23
 70
     1
102
RTVSPropertyOp24
 70
     1
102
RTVSPropertyOp25
 70
     1
102
RTVSPropertyOp26
 70
     1
102
RTVSPropertyOp27
 70
     1
102
RTVSPropertyOp28
 70
     1
102
RTVSPropertyOp29
 70
     1
102
RTVSPropertyOp30
 70
     1
102
RTVSPropertyOp31
 70
     1
102
RTVSPropertyOp32
 70
     1
  0
XRECORD
  5
298
102
{ACAD_REACTORS
330
297
102
}
330
297
100
AcDbXrecord
280
     1
102
RTVSPropertyOp0
 70
     1
102
RTVSPropertyOp1
 70
     1
102
RTVSPropertyOp2
 70
     1
102
RTVSPropertyOp3
 70
     1
102
RTVSPropertyOp4
 70
     1
102
RTVSPropertyOp5
 70
     1
102
RTVSPropertyOp6
 70
     1
102
RTVSPropertyOp7
 70
     1
102
RTVSPropertyOp8
 70
     1
102
RTVSPropertyOp9
 70
     1
102
RTVSPropertyOp10
 70
     1
102
RTVSPropertyOp11
 70
     1
102
RTVSPropertyOp12
 70
     1
102
RTVSPropertyOp13
 70
     1
102
RTVSPropertyOp14
 70
     1
102
RTVSPropertyOp15
 70
     1
102
RTVSPropertyOp16
 70
     1
102
RTVSPropertyOp17
 70
     1
102
RTVSPropertyOp18
 70
     1
102
RTVSPropertyOp19
 70
     1
102
RTVSPropertyOp20
 70
     1
102
RTVSPropertyOp21
 70
     1
102
RTVSPropertyOp22
 70
     1
102
RTVSPropertyOp23
 70
     1
102
RTVSPropertyOp24
 70
     1
102
RTVSPropertyOp25
 70
     1
102
RTVSPropertyOp26
 70
     1
102
RTVSPropertyOp27
 70
     1
102
RTVSPropertyOp28
 70
     1
102
RTVSPropertyOp29
 70
     1
102
RTVSPropertyOp30
 70
     1
102
RTVSPropertyOp31
 70
     1
102
RTVSPropertyOp32
 70
     1
  0
XRECORD
  5
28E
102
{ACAD_REACTORS
330
28D
102
}
330
28D
100
AcDbXrecord
280
     1
102
RTVSPropertyOp0
 70
     1
102
RTVSPropertyOp1
 70
     1
102
RTVSPropertyOp2
 70
     1
102
RTVSPropertyOp3
 70
     1
102
RTVSPropertyOp4
 70
     1
102
RTVSPropertyOp5
 70
     1
102
RTVSPropertyOp6
 70
     1
102
RTVSPropertyOp7
 70
     1
102
RTVSPropertyOp8
 70
     1
102
RTVSPropertyOp9
 70
     1
102
RTVSPropertyOp10
 70
     1
102
RTVSPropertyOp11
 70
     1
102
RTVSPropertyOp12
 70
     1
102
RTVSPropertyOp13
 70
     1
102
RTVSPropertyOp14
 70
     1
102
RTVSPropertyOp15
 70
     1
102
RTVSPropertyOp16
 70
     1
102
RTVSPropertyOp17
 70
     1
102
RTVSPropertyOp18
 70
     1
102
RTVSPropertyOp19
 70
     1
102
RTVSPropertyOp20
 70
     1
102
RTVSPropertyOp21
 70
     1
102
RTVSPropertyOp22
 70
     1
102
RTVSPropertyOp23
 70
     1
102
RTVSPropertyOp24
 70
     1
102
RTVSPropertyOp25
 70
     1
102
RTVSPropertyOp26
 70
     1
102
RTVSPropertyOp27
 70
     1
102
RTVSPropertyOp28
 70
     1
102
RTVSPropertyOp29
 70
     1
102
RTVSPropertyOp30
 70
     1
102
RTVSPropertyOp31
 70
     1
102
RTVSPropertyOp32
 70
     1
  0
XRECORD
  5
296
102
{ACAD_REACTORS
330
295
102
}
330
295
100
AcDbXrecord
280
     1
102
RTVSPropertyOp0
 70
     1
102
RTVSPropertyOp1
 70
     1
102
RTVSPropertyOp2
 70
     1
102
RTVSPropertyOp3
 70
     1
102
RTVSPropertyOp4
 70
     1
102
RTVSPropertyOp5
 70
     1
102
RTVSPropertyOp6
 70
     1
102
RTVSPropertyOp7
 70
     1
102
RTVSPropertyOp8
 70
     1
102
RTVSPropertyOp9
 70
     1
102
RTVSPropertyOp10
 70
     1
102
RTVSPropertyOp11
 70
     1
102
RTVSPropertyOp12
 70
     1
102
RTVSPropertyOp13
 70
     1
102
RTVSPropertyOp14
 70
     1
102
RTVSPropertyOp15
 70
     1
102
RTVSPropertyOp16
 70
     1
102
RTVSPropertyOp17
 70
     1
102
RTVSPropertyOp18
 70
     1
102
RTVSPropertyOp19
 70
     1
102
RTVSPropertyOp20
 70
     1
102
RTVSPropertyOp21
 70
     1
102
RTVSPropertyOp22
 70
     1
102
RTVSPropertyOp23
 70
     1
102
RTVSPropertyOp24
 70
     1
102
RTVSPropertyOp25
 70
     1
102
RTVSPropertyOp26
 70
     1
102
RTVSPropertyOp27
 70
     1
102
RTVSPropertyOp28
 70
     1
102
RTVSPropertyOp29
 70
     1
102
RTVSPropertyOp30
 70
     1
102
RTVSPropertyOp31
 70
     1
102
RTVSPropertyOp32
 70
     1
  0
ENDSEC
  0
EOF
